Ronaldo (2015) 6.4/10 92 min UK, Spain | Sublime Text 3 0 Build 3143 MAC OS X - ReleaseLoad Com zip | Sebastian Roché
extratorrent2.cc - A Fan Made Alternative Login   |   Register
Important Information
Registrations are open now
-------------------------------------

Please click here to register with Extratorrent2 to recieve latest updates, add bookmarks and to post comments.

-------------------------------------

Your login details will work on both Extratorrent2.cc and Extra2.to

Friends
Friends

1) Filebebo
-------------------------------------
2) MoviesDig
-------------------------------------
3) Torrentz2.cc
-------------------------------------
4) Torrents.me

Extratorrent2 > Categories > Movies > Transformers.The.Last.Knight.2017.720p.HDRiP.x264.AC3-MAJESTIC torrent


Browse Movies torrents

Transformers.The.Last.Knight.2017.720p.HDRiP.x264.AC3-MAJESTIC torrent


Transformers: The Last Knight (2017)
Name: Transformers: The Last Knight
Released Year: 2017
Runtime: 149 mins
Gener: Action, Adventure, Sci-Fi
Director: Michael Bay
Country: USA
IMDB Rating: 5.5/10
Plot: Humans and Transformers are at war, Optimus Prime is gone. The key to saving our future lies buried in the secrets of the past, in the hidden history of Transformers on Earth.

Download torrent: Download Transformers.The.Last.Knight.2017.720p.HDRiP.x264.AC3-MAJESTIC torrent Magnet link Bookmark Torrent: Transformers.The.Last.Knight.2017.720p.HDRiP.x264.AC3-MAJESTIC   Transformers.The.Last.Knight.2017.720p.HDRiP.x264.AC3-MAJESTIC torrent
Info hash: BA87BD745043A0E828B08ED699275B00645CF7BA
Category: Categories > Movies
Trackers:
View all torrent trackers >
Health:
 seeds: 1 ,  leechers: 10 |  Update >
Torrent language: English English
Total Size: 3.9 GB
Files List:
2    View torrent files >
Uploader:
showstopper
Torrent added: September 12, 2017, 11:02 pm
IMDB: http://www.imdb.com/title/tt3371366
Users rating: ---, not rated. please login to rate.

Download Transformers.The.Last.Knight.2017.720p.HDRiP.x264.AC3-MAJESTIC torrent



Torrent Description

Transformers.The.Last.Knight.2017.720p.HDRiP.x264.AC3-MAJESTIC

ImDb: http://www.imdb.com/title/tt3371366



Complete name : Transformers.The.Last.Knight.2017.720p.HDRiP.x264.AC3-MAJESTIC.mkv
Format : Matroska
Format version : Version 4 / Version 2
File size : 3.86 GiB
Duration : 2 h 34 min
Overall bit rate : 3 575 kb/s
Encoded date : UTC 2017-09-12 21:03:33
Writing application : mkvmerge v9.2.0 ('Photograph') 64bit
Writing library : libebml v1.3.3 + libmatroska v1.4.4

Video
ID : 1
Format : AVC
Format/Info : Advanced Video Codec
Format profile :
Format settings, CABAC : Yes
Format settings, ReFrames : 5 frames
Codec ID : V_MPEG4/ISO/AVC
Duration : 2 h 34 min
Bit rate : 3 200 kb/s
Width : 1 280 pixels
Height : 696 pixels
Display aspect ratio : 1.85:1
Frame rate mode : Constant
Frame rate : 23.976 (24000/1001) FPS
Color space : YUV
Chroma subsampling : 4:2:0
Bit depth : 8 bits
Scan type : Progressive
Bits/(Pixel*Frame) : 0.150
Stream size : 3.44 GiB (89%)
Writing library : x264 core 148 r2694 3b70645
Encoding settings : cabac=1 / ref=5 / deblock=1:0:0 / analyse=0x3:0x113 / me=umh / subme=7 / psy=1 / psy_rd=1.00:0.00 / mixed_ref=1 / me_range=32 / chroma_me=1 / trellis=2 / 8x8dct=1 / cqm=0 / deadzone=21,11 / fast_pskip=1 / chroma_qp_offset=-2 / threads=12 / lookahead_threads=2 / sliced_threads=0 / nr=0 / decimate=1 / interlaced=0 / bluray_compat=0 / constrained_intra=0 / bframes=5 / b_pyramid=2 / b_adapt=1 / b_bias=0 / direct=1 / weightb=1 / open_gop=0 / weightp=2 / keyint=250 / keyint_min=23 / scenecut=40 / intra_refresh=0 / rc_lookahead=40 / rc=2pass / mbtree=1 / bitrate=3200 / ratetol=1.0 / qcomp=0.60 / qpmin=0 / qpmax=69 / qpstep=4 / cplxblur=20.0 / qblur=0.5 / vbv_maxrate=6200 / vbv_bufsize=58199 / nal_hrd=none / filler=0 / ip_ratio=1.40 / aq=1:1.00
Default : Yes
Forced : No

Audio
ID : 2
Format : AC-3
Format/Info : Audio Coding 3
Format settings, Endianness : Big
Codec ID : A_AC3
Duration : 2 h 34 min
Bit rate mode : Constant
Bit rate : 384 kb/s
Channel(s) : 6 channels
Channel positions : Front: L C R, Side: L R, LFE
Sampling rate : 48.0 kHz
Frame rate : 31.250 FPS (1536 spf)
Bit depth : 16 bits
Compression mode : Lossy
Stream size : 424 MiB (11%)
Language : English
Service kind : Complete Main
Default : No
Forced : No

Text #1
ID : 3
Format : UTF-8
Codec ID : S_TEXT/UTF8
Codec ID/Info : UTF-8 Plain Text
Duration : 2 h 24 min
Bit rate : 67 b/s
Count of elements : 2336
Stream size : 71.3 KiB (0%)
Title : SRT
Language : English
Default : No
Forced : No

Text #2
ID : 4
Format : SSA
Codec ID : S_TEXT/SSA
Codec ID/Info : Sub Station Alpha
Duration : 2 h 24 min
Bit rate : 157 b/s
Count of elements : 2336
Compression mode : Lossless
Stream size : 167 KiB (0%)
Title : SSA
Language : English
Default : No
Forced : No






Click To View Screenshot

Click To View Screenshot

Click To View Screenshot


Download Transformers.The.Last.Knight.2017.720p.HDRiP.x264.AC3-MAJESTIC torrent


Related Torrents


Comments   (please login to add your comment!)


Home - Browse Torrents - Our official mirror : rainbeauxsmith.net

Made with love by an Extratorrent Fan!