Cardfight!! Vanguard G: Gears Crisis | Năm Ấy Hoa Nở Trăng Vừa Tròn - Nothing Gold Can Stay (2017) Full 75/75 Tập HD Vietsub + Thuyết Minh [stt/17/75 HD VIETSUB] | Pension complète
extratorrent2.cc - A Fan Made Alternative Login   |   Register
Important Information
Registrations are open now
-------------------------------------

Please click here to register with Extratorrent2 to recieve latest updates, add bookmarks and to post comments.

-------------------------------------

Your login details will work on both Extratorrent2.cc and Extra2.to

Friends
Friends

1) Filebebo
-------------------------------------
2) MoviesDig
-------------------------------------
3) Torrentz2.cc
-------------------------------------
4) Torrents.me

Extratorrent2 > Categories > TV > The Big Bang Theory S10E23 The Gyroscopic Collapse 720p WEB x264-[MULVAcoded] torrent


Browse TV torrents

The Big Bang Theory S10E23 The Gyroscopic Collapse 720p WEB x264-[MULVAcoded] torrent


The Big Bang Theory (2007)
Name: The Big Bang Theory
Released Year: 2007
Runtime: 22 mins
Gener: Comedy, Romance
Director: Mark Cendrowski|Anthony Rich|Peter Chakos|Nicole Lorre|James Burrows|Howard Murray|Ted Wass|Andrew D
Country: USA
IMDB Rating: 8.3/10
Plot: A woman who moves into an apartment across the hall from two brilliant but socially awkward physicists shows them how little they know about life outside of the laboratory.

Download torrent: Download The Big Bang Theory S10E23 The Gyroscopic Collapse 720p WEB x264-[MULVAcoded] torrent Magnet link Bookmark Torrent: The Big Bang Theory S10E23 The Gyroscopic Collapse 720p WEB x264-[MULVAcoded]   The Big Bang Theory S10E23 The Gyroscopic Collapse 720p WEB x264-[MULVAcoded] torrent
Info hash: 91DFF069D5FD4DA68D942E5E40E3BCF842C9FF77
Category: Categories > TV
Trackers:
View all torrent trackers >
Health:
 seeds: 104 ,  leechers: 20 |  Update >
Torrent language: English English
Total Size: 147.3 MB
Files List:
1    View torrent files >
Uploader:
Mulva1989
Torrent added: May 8, 2017, 12:25 am
Tags: Comedy, Sitcom, WEB, 720p
IMDB: http://www.imdb.com/title/tt0898266
Users rating: ---, not rated. please login to rate.

Download The Big Bang Theory S10E23 The Gyroscopic Collapse 720p WEB x264-[MULVAcoded] torrent



Torrent Description


The Big Bang Theory S10E23 The Gyroscopic Collapse 720p WEB x264-[MULVAcoded]
http://www.imdb.com/title/tt0898266

Airdate : 2017-05-04



SEED/PEER STATS




Amy is offered a Fellowship at Princeton, Raj makes new living arrangements, and the gyroscope project is spinning out of control!

English subtitles included

Screenshots

Click to enlarge





***NOTE***
MULVAcoded encodes are now compatible with xbox 360/PS3/PS4 and most embedded TV players!
*** *** ***


Source : The.Big.Bang.Theory.S10E23.1080p.WEB-DL.DD5.1.H264-RARBG

Format : Matroska
Format version : Version 4 / Version 2
File size : 147 MiB
Duration : 19 min 11 s
Overall bit rate : 1 074 kb/s
Encoded date : UTC 2017-05-05 10:08:09
Writing application : mkvmerge v8.3.0 ('Over the Horizon') 64bit
Writing library : libebml v1.3.1 + libmatroska v1.4.2

Video
ID : 1
Format : AVC
Format/Info : Advanced Video Codec
Format profile :
Format settings, CABAC : Yes
Format settings, ReFrames : 8 frames
Codec ID : V_MPEG4/ISO/AVC
Duration : 19 min 11 s
Bit rate : 975 kb/s
Width : 1 280 pixels
Height : 720 pixels
Display aspect ratio : 16:9
Frame rate mode : Constant
Frame rate : 23.976 (24000/1001) FPS
Color space : YUV
Chroma subsampling : 4:2:0
Bit depth : 8 bits
Scan type : Progressive
Bits/(Pixel*Frame) : 0.044
Stream size : 134 MiB (91%)
Writing library : x264 core 148 r2705 3f5ed56
Encoding settings : cabac=1 / ref=8 / deblock=1:0:0 / analyse=0x3:0x113 / me=umh / subme=9 / psy=1 / psy_rd=1.00:0.00 / mixed_ref=1 / me_range=24 / chroma_me=1 / trellis=1 / 8x8dct=1 / cqm=0 / deadzone=21,11 / fast_pskip=1 / chroma_qp_offset=-2 / threads=6 / lookahead_threads=1 / sliced_threads=0 / nr=0 / decimate=1 / interlaced=0 / bluray_compat=0 / constrained_intra=0 / bframes=5 / b_pyramid=2 / b_adapt=2 / b_bias=0 / direct=3 / weightb=1 / open_gop=0 / weightp=2 / keyint=240 / keyint_min=23 / scenecut=40 / intra_refresh=0 / rc_lookahead=60 / rc=crf / mbtree=1 / crf=25.0 / qcomp=0.60 / qpmin=0 / qpmax=69 / qpstep=4 / ip_ratio=1.40 / aq=2:1.00
Default : Yes
Forced : No

Audio
ID : 2
Format : AAC
Format/Info : Advanced Audio Codec
Format profile : LC
Codec ID : A_AAC
Duration : 19 min 11 s
Bit rate : 96.0 kb/s
Channel(s) : 2 channels
Channel positions : Front: L R
Sampling rate : 48.0 kHz
Frame rate : 46.875 FPS (1024 spf)
Compression mode : Lossy
Delay relative to video : 9 ms
Stream size : 13.2 MiB (9%)
Language : English
Default : Yes
Forced : No

Text
ID : 3
Format : UTF-8
Codec ID : S_TEXT/UTF8
Codec ID/Info : UTF-8 Plain Text
Duration : 18 min 40 s
Bit rate : 95 b/s
Count of elements : 410
Stream size : 13.0 KiB (0%)
Language : English
Default : Yes
Forced : No


Download The Big Bang Theory S10E23 The Gyroscopic Collapse 720p WEB x264-[MULVAcoded] torrent


Related Torrents


Comments   (please login to add your comment!)


Home - Browse Torrents - Our official mirror : rainbeauxsmith.net

Made with love by an Extratorrent Fan!