No Comment | Motörhead - Under Cover (2017) | Gracze / Ballers
extratorrent2.cc - A Fan Made Alternative Login   |   Register
Important Information
Registrations are open now
-------------------------------------

Please click here to register with Extratorrent2 to recieve latest updates, add bookmarks and to post comments.

-------------------------------------

Your login details will work on both Extratorrent2.cc and Extra2.to

Friends
Friends

1) Filebebo
-------------------------------------
2) MoviesDig
-------------------------------------
3) Torrentz2.cc
-------------------------------------
4) Torrents.me

Extratorrent2 > Categories > TV > The.Flash.S03E23.720p.WEB-DL.DD5.1.H264-[Amresh] torrent


Browse TV torrents

The.Flash.S03E23.720p.WEB-DL.DD5.1.H264-[Amresh] torrent


The Flash (2014)
Name: The Flash
Released Year: 2014
Runtime: 43 mins
Gener: Action, Adventure, Drama
Director: Dermott Downs|Ralph Hemecker|Jesse Warn|Glen Winter|Millicent Shelton|Rob Hardy|J.J. Makaro|Stefan P
Country: USA
IMDB Rating: 8.1/10
Plot: After being struck by lightning, Barry Allen wakes up from his coma to discover he's been given the power of super speed, becoming the Flash, fighting crime in Central City.

Download torrent: Download The.Flash.S03E23.720p.WEB-DL.DD5.1.H264-[Amresh] torrent Magnet link Bookmark Torrent: The.Flash.S03E23.720p.WEB-DL.DD5.1.H264-[Amresh]   The.Flash.S03E23.720p.WEB-DL.DD5.1.H264-[Amresh] torrent
Info hash: 1C5B1E0447715B4685DDD679301521D1D570DB5B
Category: Categories > TV
Trackers:
View all torrent trackers >
Health:
 seeds: 140 ,  leechers: 14 |  Update >
Torrent language: English English
Total Size: 1.3 GB
Files List:
6    View torrent files >
Uploader:
Amresh
Torrent added: June 1, 2017, 11:04 am
Tags: Action, Adventure, Drama, Sci-Fi
IMDB: http://www.imdb.com/title/tt3107288
Users rating: ---, not rated. please login to rate.

Download The.Flash.S03E23.720p.WEB-DL.DD5.1.H264-[Amresh] torrent



Torrent Description



The Flash S03E23


http://www.tvmaze.com/shows/13/the-flash




http://imdb.com/title/tt3107288/



About The Show


Barry Allen is a Central City police forensic scientist with a reasonably happy life| despite the childhood trauma of a mysterious red and yellow lightning killing
his mother and framing his father. All that changes when a massive particle accelerator accident leads to Barry being struck by lightning in his lab. Coming out of
coma nine months later| Barry and his new friends at S.T.A.R labs find that he now has the ability to move at superhuman speed. Furthermore| Barry learns that he is
but one of many affected by that event| most of whom are using their powers for evil. Determined to make a difference| Barry dedicates his life to fighting such
threats| as The Flash. While he gains allies he never expected| there are also secret forces determined to aid and manipulate him for their own agenda.


ScreenShots









Media Info


Code:

Video
ID                                       : 1
Format                                   : AVC
Format/Info                              : Advanced Video Codec
Format profile                           :
Format settings, CABAC                   : No
Format settings, ReFrames                : 2 frames
Codec ID                                 : V_MPEG4/ISO/AVC
Duration                                 : 41mn 55s
Bit rate                                 : 3 974 Kbps
Width                                    : 1 280 pixels
Height                                   : 718 pixels
Display aspect ratio                     : 16:9
Frame rate mode                          : Constant
Frame rate                               : 23.976 (24000/1001) fps
Color space                              : YUV
Chroma subsampling                       : 4:2:0
Bit depth                                : 8 bits
Scan type                                : Progressive
Bits/(Pixel*Frame)                       : 0.180
Stream size                              : 1.16 GiB (89%)
Title                                    : The.Flash.S03E23.720p.WEB-DL.DD5.1.H264-RARBG
Language                                 : English
Default                                  : Yes
Forced                                   : No
Color range                              : Limited
Color primaries                          : BT.709
Transfer characteristics                 : BT.709
Matrix coefficients                      : BT.709

Audio
ID                                       : 2
Format                                   : AC-3
Format/Info                              : Audio Coding 3
Mode extension                           : CM (complete main)
Format settings, Endianness              : Big
Codec ID                                 : A_AC3
Duration                                 : 41mn 55s
Bit rate mode                            : Constant
Bit rate                                 : 384 Kbps
Channel(s)                               : 6 channels
Channel positions                        : Front: L C R, Side: L R, LFE
Sampling rate                            : 48.0 KHz
Frame rate                               : 31.250 fps (1536 spf)
Compression mode                         : Lossy
Delay relative to video                  : -42ms
Stream size                              : 115 MiB (9%)
Title                                    : The.Flash.S03E23.720p.WEB-DL.DD5.1.H264-RARBG
Language                                 : English
Default                                  : Yes
Forced                                   : No

Text #1
ID                                       : 3
Format                                   : UTF-8
Codec ID                                 : S_TEXT/UTF8
Codec ID/Info                            : UTF-8 Plain Text
Language                                 : English
Default                                  : Yes
Forced                                   : No

Text #2
ID                                       : 4
Format                                   : UTF-8
Codec ID                                 : S_TEXT/UTF8
Codec ID/Info                            : UTF-8 Plain Text
Title                                    : SDH
Language                                 : English
Default                                  : No
Forced                                   : No



::Please SEED The Torrent After Download::


Download The.Flash.S03E23.720p.WEB-DL.DD5.1.H264-[Amresh] torrent


Related Torrents


Comments   (please login to add your comment!)


Home - Browse Torrents - Our official mirror : rainbeauxsmith.net

Made with love by an Extratorrent Fan!