Boruto Episode 2 | featurecam crack | Mike Lane
extratorrent2.cc - A Fan Made Alternative Login   |   Register
Important Information
Registrations are open now
-------------------------------------

Please click here to register with Extratorrent2 to recieve latest updates, add bookmarks and to post comments.

-------------------------------------

Your login details will work on both Extratorrent2.cc and Extra2.to

Friends
Friends

1) Filebebo
-------------------------------------
2) MoviesDig
-------------------------------------
3) Torrentz2.cc
-------------------------------------
4) Torrents.me

Extratorrent2 > Categories > Movies > Sergeant York 1941 10bit hevc-d3g. torrent


Browse Movies torrents

Sergeant York 1941 10bit hevc-d3g. torrent


Sergeant York (1941)
Name: Sergeant York
Released Year: 1941
Runtime: 134 mins
Gener: Biography, Drama, History
Director: Howard Hawks
Country: USA
IMDB Rating: 7.8/10
Plot: A hillbilly sharpshooter drafted in WW1 despite his claim to be a pacifist, who ends up becoming a war hero.

Download torrent: Download Sergeant York 1941 10bit hevc-d3g. torrent Magnet link Bookmark Torrent: Sergeant York 1941 10bit hevc-d3g.   Sergeant York 1941 10bit hevc-d3g. torrent
Info hash: 306A7FA1EBDCF4C04098BD31AA0E29CE3DB1DD5E
Category: Categories > Movies
Trackers:
View all torrent trackers >
Health:
 seeds: 16 ,  leechers: 20 |  Update >
Torrent language: English English
Total Size: 2.3 GB
Files List:
1    View torrent files >
Uploader:
showstopper
Torrent added: September 12, 2017, 11:02 pm
IMDB: http://www.imdb.com/title/tt0034167
Users rating: ---, not rated. please login to rate.

Download Sergeant York 1941 10bit hevc-d3g. torrent



Torrent Description

Sergeant York 1941 10bit hevc-d3g.

ImDb: http://www.imdb.com/title/tt0034167



Complete name : Serteant York 1941 BluRay 10Bit 1080p AC-3 H265-d3g.mkv
Format : Matroska
Format version : Version 4 / Version 2
File size : 2.26 GiB
Duration : 2 h 14 min
Overall bit rate : 2 412 kb/s
Movie name : Serteant York 1941 BluRay 10Bit 1080p AC-3 H265-d3g
Encoded date : UTC 2017-09-11 23:10:38
Writing application : DVDFab 10.0.5.7
Writing library : libebml v1.3.4 + libmatroska v1.4.5

Video
ID : 1
Format : HEVC
Format/Info : High Efficiency Video Coding
Format profile : Main @Main
Codec ID : V_MPEGH/ISO/HEVC
Duration : 2 h 14 min
Bit rate : 2 220 kb/s
Width : 1 476 pixels
Height : 1 080 pixels
Display aspect ratio : 4:3
Frame rate mode : Constant
Frame rate : 23.976 (24000/1001) FPS
Color space : YUV
Chroma subsampling : 4:2:0
Bit depth : 10 bits
Bits/(Pixel*Frame) : 0.058
Stream size : 2.08 GiB (92%)
Default : Yes
Forced : No
Color range : Limited
Color primaries : BT.709
Transfer characteristics : BT.709
Matrix coefficients : BT.709

Audio
ID : 2
Format : AC-3
Format/Info : Audio Coding 3
Format settings, Endianness : Big
Codec ID : A_AC3
Duration : 2 h 14 min
Bit rate mode : Constant
Bit rate : 192 kb/s
Channel(s) : 2 channels
Channel positions : Front: L R
Sampling rate : 48.0 kHz
Frame rate : 31.250 FPS (1536 spf)
Bit depth : 16 bits
Compression mode : Lossy
Stream size : 184 MiB (8%)
Language : English
Service kind : Complete Main
Default : Yes
Forced : No

Menu
00:00:00.000 : en:(01)00:00:00:000
00:12:49.477 : en:(02)00:12:49:477
00:20:13.921 : en:(03)00:20:13:921
00:34:34.155 : en:(04)00:34:34:155
00:43:28.689 : en:(05)00:43:28:689
00:54:34.187 : en:(06)00:54:34:187
01:07:23.789 : en:(07)01:07:23:789
01:14:36.597 : en:(08)01:14:36:597
01:23:32.549 : en:(09)01:23:32:549
01:39:02.770 : en:(10)01:39:02:770
01:49:09.042 : en:(11)01:49:09:042
02:03:30.694 : en:(12)02:03:30:694






Click To View Screenshot

Click To View Screenshot

Click To View Screenshot


Download Sergeant York 1941 10bit hevc-d3g. torrent


Related Torrents


Comments   (please login to add your comment!)

daisy ducati     dual     patriots day     hindi english     sasha grey gang     transporter yify     fight s     pantyhose playtime     sins 2005     snis     hd fucking with hot girl     angela white     720p yify     sweet     my hairy pregnant wife     survivor s33e08     tight 1080     privat 70     hindi     one of us     carmen ross     hevc     april blue casting     tamil     


Home - Browse Torrents - Our official mirror : rainbeauxsmith.net

Made with love by an Extratorrent Fan!