Gossip Girl | Mobile Suit Zeta Gundam | Hail Caesar
extratorrent2.cc - A Fan Made Alternative Login   |   Register
Important Information
Registrations are open now
-------------------------------------

Please click here to register with Extratorrent2 to recieve latest updates, add bookmarks and to post comments.

-------------------------------------

Your login details will work on both Extratorrent2.cc and Extra2.to

Friends
Friends

1) Filebebo
-------------------------------------
2) MoviesDig
-------------------------------------
3) Torrentz2.cc
-------------------------------------
4) Torrents.me

Extratorrent2 > Categories > TV > Arrow S01E19 720p BluRay Dual Audio Hindi English Esub R!nku Team EDM torrent


Browse TV torrents

Arrow S01E19 720p BluRay Dual Audio Hindi English Esub R!nku Team EDM torrent


Download torrent: Download Arrow S01E19 720p BluRay Dual Audio Hindi English Esub R!nku Team EDM torrent Magnet link Bookmark Torrent: Arrow S01E19 720p BluRay Dual Audio Hindi English Esub R!nku Team EDM   Arrow S01E19 720p BluRay Dual Audio Hindi English Esub R!nku Team EDM torrent
Info hash: 8857FD3FB11B0F9930FAEECB8D96A1556F014AB0
Category: Categories > TV
Trackers:
View all torrent trackers >
Health:
 seeds: 0 ,  leechers: 69 |  Update >
Torrent language: Hindi Hindi
Total Size: 405.8 MB
Files List:
14    View torrent files >
Uploader:
sujit2324
Torrent added: August 7, 2017, 11:06 am
Tags: R!nku, Arrow, Hindi, , EDM
Users rating: ---, not rated. please login to rate.

Download Arrow S01E19 720p BluRay Dual Audio Hindi English Esub R!nku Team EDM torrent



Torrent Description







Arrow S01E19 720p BluRay Dual Audio Hindi English Esub R!nku


IMDB Link

Join Us Now

It's Urdu Dubbed

Perfact Snyc By R!nku

Sample Included in Torrent



Video
ID : 1
Format : AVC
Format/Info : Advanced Video Codec
Format settings, CABAC : Yes
Duration : 42 min 23 s
Bit rate : 1 088 kb/s
Width : 1 280 pixels
Height : 720 pixels
Display aspect ratio : 16:9
Frame rate mode : Constant
Color space : YUV
Stream size : 330 MiB (85%)
Title : Arrow S01E19 720p BluRay Dual Audio Hindi English Esub R!nku

Audio #1
ID : 2
Format : AAC
Format/Info : Advanced Audio Codec
Codec ID : A_AAC
Duration : 42 min 24 s
Channel(s) : 2 channels
Channel positions : Front: L R
Compression mode : Lossy
Delay relative to video : 31 ms
Stream size : 19.4 MiB (5%)
Title : DD2.0 R!nku
Language : English
Default : Yes
Forced : No

Audio #2
ID : 3
Format : AAC
Format/Info : Advanced Audio Codec
Format profile : LC
Codec ID : A_AAC
Duration : 42 min 24 s
Channel(s) : 2 channels
Channel positions : Front: L R
Sampling rate : 44.1 kHz
Compression mode : Lossy
Stream size : 38.1 MiB (10%)
Title : DD2.0 R!nku
Language : Hindi
Default : No
Forced : No

Text
ID : 4
Format : UTF-8
Codec ID : S_TEXT/UTF8
Codec ID/Info : UTF-8 Plain Text
Duration : 40 min 9 s
Bit rate : 0 b/s
Count of elements : 3
Stream size : 269 Bytes (0%)
Default : Yes
Forced : No














Download Arrow S01E19 720p BluRay Dual Audio Hindi English Esub R!nku Team EDM torrent


Related Torrents


Comments   (please login to add your comment!)

run     brazzers xxx     cambodian     dual audio     game of thrones season 07     fucking christmas time     cecilia scott     arrow     xxx hairy pussy     shippuden     hindi     will s01e08     luxure epouses a partager     equipment room boom boom     cumming in hot     ball     power in the shower     will s01e07     two and half men season 1     anno     game of thrones s07e03 eztv     winkypussy     cuckold     winky pussy     


Home - Browse Torrents - Our official mirror : rainbeauxsmith.net

Made with love by an Extratorrent Fan!