American Horror Story S07E01 HDTV x264-SVA[rarbg] | Forbidden Love Portion 2016 | hd Suits Season 2 44 min 8.7
extratorrent2.cc - A Fan Made Alternative Login   |   Register
Important Information
Registrations are open now
-------------------------------------

Please click here to register with Extratorrent2 to recieve latest updates, add bookmarks and to post comments.

-------------------------------------

Your login details will work on both Extratorrent2.cc and Extra2.to

Friends
Friends

1) Filebebo
-------------------------------------
2) MoviesDig
-------------------------------------
3) Torrentz2.cc
-------------------------------------
4) Torrents.me

Extratorrent2 > Categories > Movies > Cheech.and.Chongs.Next.Movie.1980.720p.BluRay.x264-x0r torrent


Browse Movies torrents

Cheech.and.Chongs.Next.Movie.1980.720p.BluRay.x264-x0r torrent


Cheech and Chong's Next Movie (1980)
Name: Cheech and Chong's Next Movie
Released Year: 1980
Runtime: 99 mins
Gener: Comedy, Crime, Sci-Fi
Director: Tommy Chong
Country: USA
IMDB Rating: 6.1/10
Plot: The two stoners and their friends go through another series of crazy, drug-influenced misadventures.

Download torrent: Download Cheech.and.Chongs.Next.Movie.1980.720p.BluRay.x264-x0r torrent Magnet link Bookmark Torrent: Cheech.and.Chongs.Next.Movie.1980.720p.BluRay.x264-x0r   Cheech.and.Chongs.Next.Movie.1980.720p.BluRay.x264-x0r torrent
Info hash: D85BBA44C09FEC82FC12FFC139C42C0EBAB72C8D
Category: Categories > Movies
Trackers:
View all torrent trackers >
Health:
 seeds: 23 ,  leechers: 21 |  Update >
Torrent language: English English
Total Size: 1.8 GB
Files List:
4    View torrent files >
Uploader:
showstopper
Torrent added: September 12, 2017, 11:02 pm
IMDB: http://www.imdb.com/title/tt0080520
Users rating: ---, not rated. please login to rate.

Download Cheech.and.Chongs.Next.Movie.1980.720p.BluRay.x264-x0r torrent



Torrent Description

Cheech.and.Chongs.Next.Movie.1980.720p.BluRay.x264-x0r

ImDb: http://www.imdb.com/title/tt0080520



Complete name : Cheech.and.Chongs.Next.Movie.1980.720p.BluRay.x264-x0r.mkv
Format : Matroska
Format version : Version 4 / Version 2
File size : 1.82 GiB
Duration : 1 h 34 min
Overall bit rate : 2 754 kb/s
Movie name : Cheech.and.Chongs.Next.Movie.1980.720p.BluRay.x264-x0r
Encoded date : UTC 2017-09-12 21:14:09
Writing application : mkvmerge v7.7.0 ('Six Voices') 64bit built on Mar 1 2015 01:50:05
Writing library : libebml v1.3.1 + libmatroska v1.4.2

Video
ID : 1
Format : AVC
Format/Info : Advanced Video Codec
Format profile :
Format settings, CABAC : Yes
Format settings, ReFrames : 8 frames
Codec ID : V_MPEG4/ISO/AVC
Duration : 1 h 34 min
Bit rate : 2 560 kb/s
Width : 1 280 pixels
Height : 720 pixels
Display aspect ratio : 16:9
Frame rate mode : Constant
Frame rate : 23.976 (24000/1001) FPS
Color space : YUV
Chroma subsampling : 4:2:0
Bit depth : 8 bits
Scan type : Progressive
Bits/(Pixel*Frame) : 0.116
Stream size : 1.69 GiB (93%)
Writing library : x264 core 142 r2389 956c8d8
Encoding settings : cabac=1 / ref=8 / deblock=1:1:1 / analyse=0x3:0x113 / me=umh / subme=9 / psy=1 / psy_rd=1.00:0.25 / mixed_ref=0 / me_range=32 / chroma_me=1 / trellis=2 / 8x8dct=1 / cqm=0 / deadzone=6,6 / fast_pskip=0 / chroma_qp_offset=-4 / threads=12 / lookahead_threads=1 / sliced_threads=0 / nr=0 / decimate=0 / interlaced=0 / bluray_compat=0 / constrained_intra=0 / bframes=4 / b_pyramid=2 / b_adapt=2 / b_bias=0 / direct=3 / weightb=1 / open_gop=0 / weightp=2 / keyint=240 / keyint_min=24 / scenecut=40 / intra_refresh=0 / rc_lookahead=120 / rc=2pass / mbtree=1 / bitrate=2560 / ratetol=1.0 / qcomp=0.80 / qpmin=0 / qpmax=69 / qpstep=4 / cplxblur=20.0 / qblur=0.5 / vbv_maxrate=20000 / vbv_bufsize=25000 / nal_hrd=none / filler=0 / ip_ratio=1.10 / aq=1:0.50
Language : English
Default : Yes
Forced : No
Color range : Limited
Color primaries : BT.709
Transfer characteristics : BT.709
Matrix coefficients : BT.709

Audio
ID : 2
Format : AC-3
Format/Info : Audio Coding 3
Format settings, Endianness : Big
Codec ID : A_AC3
Duration : 1 h 34 min
Bit rate mode : Constant
Bit rate : 192 kb/s
Channel(s) : 2 channels
Channel positions : Front: L R
Sampling rate : 48.0 kHz
Frame rate : 31.250 FPS (1536 spf)
Bit depth : 16 bits
Compression mode : Lossy
Delay relative to video : -5 ms
Stream size : 130 MiB (7%)
Title : Stereo
Language : English
Service kind : Complete Main
Default : Yes
Forced : No

Text
ID : 3
Format : UTF-8
Codec ID : S_TEXT/UTF8
Codec ID/Info : UTF-8 Plain Text
Duration : 1 h 31 min
Bit rate : 80 b/s
Count of elements : 1573
Stream size : 54.2 KiB (0%)
Language : English
Default : Yes
Forced : No

Menu
00:00:00.000 : :Chapter 1
00:07:39.876 : :Chapter 2
00:15:22.713 : :Chapter 3
00:22:53.664 : :Chapter 4
00:31:07.198 : :Chapter 5
00:37:01.552 : :Chapter 6
00:44:44.515 : :Chapter 7
00:52:28.729 : :Chapter 8
00:59:58.344 : :Chapter 9
01:06:49.380 : :Chapter 10
01:14:14.366 : :Chapter 11
01:21:47.444 : :Chapter 12






Click To View Screenshot

Click To View Screenshot

Click To View Screenshot


Download Cheech.and.Chongs.Next.Movie.1980.720p.BluRay.x264-x0r torrent


Related Torrents


Comments   (please login to add your comment!)


Home - Browse Torrents - Our official mirror : rainbeauxsmith.net

Made with love by an Extratorrent Fan!