LazyTown | Fast and Furious 7 2015 HDRip x264 MenaceIISociety | Florence Foresti & Friends Juste pour rire (2009) En Streaming
extratorrent2.cc - A Fan Made Alternative Login   |   Register
Important Information
Registrations are open now
-------------------------------------

Please click here to register with Extratorrent2 to recieve latest updates, add bookmarks and to post comments.

-------------------------------------

Your login details will work on both Extratorrent2.cc and Extra2.to

Friends
Friends

1) Filebebo
-------------------------------------
2) MoviesDig
-------------------------------------
3) Torrentz2.cc
-------------------------------------
4) Torrents.me

Extratorrent2 > Categories > Movies > Pirates of the Caribbean-Dead Men Tell No Tales 2017 hevc-d3g. torrent


Browse Movies torrents

Pirates of the Caribbean-Dead Men Tell No Tales 2017 hevc-d3g. torrent


Pirates of the Caribbean: Dead Men Tell No Tales (2017)
Name: Pirates of the Caribbean: Dead Men Tell No Tales
Released Year: 2017
Runtime: 129 mins
Gener: Action, Adventure, Fantas
Director: Joachim Rønning|Espen Sandberg
Country: USA
IMDB Rating: 7.2/10
Plot: Captain Jack Sparrow searches for the trident of Poseidon.

Download torrent: Download Pirates of the Caribbean-Dead Men Tell No Tales 2017 hevc-d3g. torrent Magnet link Bookmark Torrent: Pirates of the Caribbean-Dead Men Tell No Tales 2017 hevc-d3g.   Pirates of the Caribbean-Dead Men Tell No Tales 2017 hevc-d3g. torrent
Info hash: C2FEE2ECA1FB2CA31C6D687CADA36EB797EB4775
Category: Categories > Movies
Trackers:
View all torrent trackers >
Health:
 seeds: 23 ,  leechers: 26 |  Update >
Torrent language: English English
Total Size: 2.6 GB
Files List:
1    View torrent files >
Uploader:
showstopper
Torrent added: September 12, 2017, 11:02 pm
IMDB: http://www.imdb.com/title/tt1790809
Users rating: ---, not rated. please login to rate.

Download Pirates of the Caribbean-Dead Men Tell No Tales 2017 hevc-d3g. torrent



Torrent Description

Pirates of the Caribbean-Dead Men Tell No Tales 2017 hevc-d3g.

ImDb: http://www.imdb.com/title/tt1790809



Complete name : Pirates of the Caribbean-Dead Men Tell No Tales 2017 BluRay 1080p DD5.1 H265-d3g.mkv
Format : Matroska
Format version : Version 4 / Version 2
File size : 2.60 GiB
Duration : 2 h 9 min
Overall bit rate : 2 887 kb/s
Movie name : Pirates of the Caribbean-Dead Men Tell No Tales 2017 BluRay 1080p DD5.1 H265-d3g
Encoded date : UTC 2017-09-12 21:13:26
Writing application : DVDFab 10.0.5.7
Writing library : libebml v1.3.4 + libmatroska v1.4.5

Video
ID : 1
Format : HEVC
Format/Info : High Efficiency Video Coding
Format profile : @Main
Codec ID : V_MPEGH/ISO/HEVC
Duration : 2 h 9 min
Bit rate : 2 429 kb/s
Width : 1 920 pixels
Height : 1 080 pixels
Display aspect ratio : 16:9
Frame rate mode : Constant
Frame rate : 23.976 (24000/1001) FPS
Color space : YUV
Chroma subsampling : 4:2:0 (Type 1 / Type 0)
Bit depth : 8 bits
Bits/(Pixel*Frame) : 0.049
Stream size : 2.19 GiB (84%)
Default : Yes
Forced : No
Color range : Full
Color primaries : BT.709
Transfer characteristics : BT.709
Matrix coefficients : BT.709

Audio
ID : 2
Format : AC-3
Format/Info : Audio Coding 3
Format settings, Endianness : Big
Codec ID : A_AC3
Duration : 2 h 9 min
Bit rate mode : Constant
Bit rate : 448 kb/s
Channel(s) : 6 channels
Channel positions : Front: L C R, Side: L R, LFE
Sampling rate : 48.0 kHz
Frame rate : 31.250 FPS (1536 spf)
Bit depth : 16 bits
Compression mode : Lossy
Stream size : 414 MiB (16%)
Language : English
Service kind : Complete Main
Default : Yes
Forced : No

Text
ID : 3
Format : VobSub
Codec ID : S_VOBSUB
Codec ID/Info : Picture based subtitle format used on DVDs
Duration : 2 h 7 min
Bit rate : 8 213 b/s
Count of elements : 1772
Stream size : 7.51 MiB (0%)
Language : English
Default : Yes
Forced : No

Menu
00:00:00.000 : en:Chapter 01
00:05:49.515 : en:Chapter 02
00:08:34.222 : en:Chapter 03
00:13:40.820 : en:Chapter 04
00:16:29.154 : en:Chapter 05
00:22:33.852 : en:Chapter 06
00:25:19.267 : en:Chapter 07
00:28:06.101 : en:Chapter 08
00:31:41.774 : en:Chapter 09
00:33:44.814 : en:Chapter 10
00:37:02.053 : en:Chapter 11
00:42:27.710 : en:Chapter 12
00:49:09.071 : en:Chapter 13
00:54:00.278 : en:Chapter 14
00:57:19.394 : en:Chapter 15
01:00:38.718 : en:Chapter 16
01:08:29.939 : en:Chapter 17
01:11:57.021 : en:Chapter 18
01:16:50.939 : en:Chapter 19
01:19:27.470 : en:Chapter 20
01:25:04.808 : en:Chapter 21
01:27:42.173 : en:Chapter 22
01:31:43.789 : en:Chapter 23
01:38:22.813 : en:Chapter 24
01:42:36.775 : en:Chapter 25
01:47:23.562 : en:Chapter 26
01:52:58.688 : en:Chapter 27
01:59:09.934 : en:Chapter 28
02:09:06.989 : en:Chapter 29






Click To View Screenshot

Click To View Screenshot

Click To View Screenshot


Download Pirates of the Caribbean-Dead Men Tell No Tales 2017 hevc-d3g. torrent


Related Torrents


Comments   (please login to add your comment!)


Home - Browse Torrents - Our official mirror : rainbeauxsmith.net

Made with love by an Extratorrent Fan!