Ishq Kills | Do Your Data Recovery Professional 6 0 MacOSX [SadeemPC] | Andrew McCarthy
extratorrent2.cc - A Fan Made Alternative Login   |   Register
Important Information
Registrations are open now
-------------------------------------

Please click here to register with Extratorrent2 to recieve latest updates, add bookmarks and to post comments.

-------------------------------------

Your login details will work on both Extratorrent2.cc and Extra2.to

Friends
Friends

1) Filebebo
-------------------------------------
2) MoviesDig
-------------------------------------
3) Torrentz2.cc
-------------------------------------
4) Torrents.me

Extratorrent2 > Categories > Movies > Baby Driver 2017 1080p HDRip x264 AC3 5.1 ESub-Hon3y torrent


Browse Movies torrents

Baby Driver 2017 1080p HDRip x264 AC3 5.1 ESub-Hon3y torrent


Download torrent: Download Baby Driver 2017 1080p HDRip x264 AC3 5.1 ESub-Hon3y torrent Magnet link Bookmark Torrent: Baby Driver 2017 1080p HDRip x264 AC3 5.1 ESub-Hon3y   Baby Driver 2017 1080p HDRip x264 AC3 5.1 ESub-Hon3y torrent
Info hash: 32324AE511173CF6E583AB7D86A24A6063863AFB
Category: Categories > Movies
Trackers:
View all torrent trackers >
Health:
 seeds: 39 ,  leechers: 28 |  Update >
Torrent language: English English
Total Size: 2.2 GB
Files List:
2    View torrent files >
Uploader:
Hon3yHD
Torrent added: September 12, 2017, 10:02 pm
Tags: Action, Crime
Users rating: ---, not rated. please login to rate.

Download Baby Driver 2017 1080p HDRip x264 AC3 5.1 ESub-Hon3y torrent



Torrent Description




Baby Driver 2017 1080p HDRip x264 AAC 5.1 ESub-Hon3y

http://www.hdsector.com


Format                      : Matroska
Format version              : Version 4 / Version 2
File size                   : 2.23 GiB
Duration                    : 1 h 52 min
Overall bit rate            : 2 838 kb/s
Movie name                  : Baby Driver 2017-Hon3y


Video
ID                          : 1
Format                      : AVC
Format/Info                 : Advanced Video Codec
Format profile              :
Format settings, CABAC      : Yes
Format settings, ReFrames   : 5 frames
Codec ID                    : V_MPEG4/ISO/AVC
Duration                    : 1 h 52 min
Bit rate                    : 2 452 kb/s
Width                       : 1 920 pixels
Height                      : 800 pixels
Display aspect ratio        : 2.40:1
Frame rate mode             : Constant
Frame rate                  : 23.976 (24000/1001) FPS


Audio
ID                          : 2
Format                      : AC-3
Format/Info                 : Audio Coding 3
Format settings, Endianness : Big
Codec ID                    : A_AC3
Duration                    : 1 h 52 min
Bit rate mode               : Constant
Bit rate                    : 384 kb/s
Channel(s)                  : 6 channels
Channel positions           : Front: L C R, Side: L R, LFE
Sampling rate               : 48.0 kHz
Frame rate                  : 31.250 FPS (1536 spf)
Bit depth                   : 16 bits
Compression mode            : Lossy
Stream size                 : 309 MiB (14%)
Language                    : English
Service kind                : Complete Main
Default                     : Yes
Forced                      : No

Text #1
ID                          : 3
Format                      : UTF-8
Codec ID                    : S_TEXT/UTF8
Codec ID/Info               : UTF-8 Plain Text
Duration                    : 1 h 49 min
Bit rate                    : 56 b/s
Count of elements           : 1548
Stream size                 : 45.6 KiB (0%)
Language                    : English
Default                     : Yes
Forced                      : No

Text #2
ID                          : 4
Format                      : UTF-8
Codec ID                    : S_TEXT/UTF8
Codec ID/Info               : UTF-8 Plain Text
Duration                    : 1 h 16 min
Bit rate                    : 1 b/s
Count of elements           : 49
Stream size                 : 738 Bytes (0%)
Title                       : FORCED
Language                    : English
Default                     : No
Forced                      : Yes

http://www.hdsector.com



Download Baby Driver 2017 1080p HDRip x264 AC3 5.1 ESub-Hon3y torrent


Related Torrents


Comments   (please login to add your comment!)


Home - Browse Torrents - Our official mirror : rainbeauxsmith.net

Made with love by an Extratorrent Fan!