Watch movies 2k | Please Like Me | Espionnage
extratorrent2.cc - A Fan Made Alternative Login   |   Register
Important Information
Registrations are open now
-------------------------------------

Please click here to register with Extratorrent2 to recieve latest updates, add bookmarks and to post comments.

-------------------------------------

Your login details will work on both Extratorrent2.cc and Extra2.to

Friends
Friends

1) Filebebo
-------------------------------------
2) MoviesDig
-------------------------------------
3) Torrentz2.cc
-------------------------------------
4) Torrents.me

Extratorrent2 > Categories > Movies > Dementia 2015 10bit hevc-d3g. torrent


Browse Movies torrents

Dementia 2015 10bit hevc-d3g. torrent


Dementia (2015)
Name: Dementia
Released Year: 2015
Runtime: 90 mins
Gener: Horror, Thriller
Director: Mike Testin
Country: USA
IMDB Rating: 5.0/10
Plot: After being diagnosed with Dementia, an elderly war veteran is forced by his estranged family to hire a live-in nurse, only to find she harbors a sinister secret.

Download torrent: Download Dementia 2015 10bit hevc-d3g. torrent Magnet link Bookmark Torrent: Dementia 2015 10bit hevc-d3g.   Dementia 2015 10bit hevc-d3g. torrent
Info hash: EE104B946BD7AAD9C9B35E3168C8BEACE2C18F5D
Category: Categories > Movies
Trackers:
View all torrent trackers >
Health:
 seeds: 9 ,  leechers: 6 |  Update >
Torrent language: English English
Total Size: 1.6 GB
Files List:
1    View torrent files >
Uploader:
showstopper
Torrent added: September 12, 2017, 10:02 pm
IMDB: http://www.imdb.com/title/tt3611002
Users rating: ---, not rated. please login to rate.

Download Dementia 2015 10bit hevc-d3g. torrent



Torrent Description

Dementia 2015 10bit hevc-d3g.

ImDb: http://www.imdb.com/title/tt3611002



Complete name : Dementia 2015 BluRay 10Bit 1080p DD5.1 H265-d3g.mkv
Format : Matroska
Format version : Version 4 / Version 2
File size : 1.59 GiB
Duration : 1 h 26 min
Overall bit rate : 2 643 kb/s
Movie name : Dementia 2015 BluRay 10Bit 1080p DD5.1 H265-d3g
Encoded date : UTC 2017-09-09 19:08:23
Writing application : DVDFab 10.0.5.7
Writing library : libebml v1.3.4 + libmatroska v1.4.5

Video
ID : 1
Format : HEVC
Format/Info : High Efficiency Video Coding
Format profile : Main @Main
Codec ID : V_MPEGH/ISO/HEVC
Duration : 1 h 26 min
Bit rate : 2 196 kb/s
Width : 1 920 pixels
Height : 804 pixels
Display aspect ratio : 2.40:1
Frame rate mode : Constant
Frame rate : 25.000 FPS
Color space : YUV
Chroma subsampling : 4:2:0
Bit depth : 10 bits
Bits/(Pixel*Frame) : 0.057
Stream size : 1.32 GiB (83%)
Default : Yes
Forced : No
Color range : Limited
Color primaries : BT.709
Transfer characteristics : BT.709
Matrix coefficients : BT.709

Audio
ID : 2
Format : AC-3
Format/Info : Audio Coding 3
Format settings, Endianness : Big
Codec ID : A_AC3
Duration : 1 h 26 min
Bit rate mode : Constant
Bit rate : 448 kb/s
Channel(s) : 6 channels
Channel positions : Front: L C R, Side: L R, LFE
Sampling rate : 48.0 kHz
Frame rate : 31.250 FPS (1536 spf)
Bit depth : 16 bits
Compression mode : Lossy
Stream size : 276 MiB (17%)
Language : English
Service kind : Complete Main
Default : Yes
Forced : No

Menu
00:00:00.000 : en:(01)00:00:00:000
00:04:36.400 : en:(02)00:04:36:400
00:08:41.120 : en:(03)00:08:41:120
00:19:37.400 : en:(04)00:19:37:400
00:32:06.200 : en:(05)00:32:06:200
00:35:36.120 : en:(06)00:35:36:120
00:43:51.200 : en:(07)00:43:51:200
00:48:43.640 : en:(08)00:48:43:640
00:54:40.440 : en:(09)00:54:40:440
01:03:43.080 : en:(10)01:03:43:080
01:12:46.680 : en:(11)01:12:46:680
01:21:12.000 : en:(12)01:21:12:000






Click To View Screenshot

Click To View Screenshot

Click To View Screenshot


Download Dementia 2015 10bit hevc-d3g. torrent




Comments   (please login to add your comment!)

kacey quinn     bluray 1080p     hindi english     alena croft     daisy ducati     solidworks     blackmailed     mamazon     sloppy seconds     czech mega swingers 21     shotacon     massage     valerie fox     angela white     onlytease 17     smd 140     resident evil dvd     april and jenna     ngod     jav uncensored blowjob     julesjordan     dual     jav uncensored     midnight in paris     


Home - Browse Torrents - Our official mirror : rainbeauxsmith.net

Made with love by an Extratorrent Fan!