Donald MacBride | - MasterChef US S08E19 HDTV x264-W4F | Mel Gibson
extratorrent2.cc - A Fan Made Alternative Login   |   Register
Important Information
Registrations are open now
-------------------------------------

Please click here to register with Extratorrent2 to recieve latest updates, add bookmarks and to post comments.

-------------------------------------

Your login details will work on both Extratorrent2.cc and Extra2.to

Friends
Friends

1) MoviesDig
-------------------------------------
2) Torrentz2.cc
-------------------------------------
3) Torrents.me

Extratorrent2 > Categories > Movies > Kong.Skull.Island.2017.720p.BRRIP.HEVC.x265.AC3-MAJESTiC torrent


Browse Movies torrents

Kong.Skull.Island.2017.720p.BRRIP.HEVC.x265.AC3-MAJESTiC torrent


Kong: Skull Island (2017)
Name: Kong: Skull Island
Released Year: 2017
Runtime: 118 mins
Gener: Action, Adventure, Fantas
Director: Jordan Vogt-Roberts
Country: USA, China, Australia, Canada
IMDB Rating: 6.9/10
Plot: A team of scientists explore an uncharted island in the Pacific, venturing into the domain of the mighty Kong, and must fight to escape a primal Eden.

Download torrent: Download Kong.Skull.Island.2017.720p.BRRIP.HEVC.x265.AC3-MAJESTiC torrent Magnet link Bookmark Torrent: Kong.Skull.Island.2017.720p.BRRIP.HEVC.x265.AC3-MAJESTiC   Kong.Skull.Island.2017.720p.BRRIP.HEVC.x265.AC3-MAJESTiC torrent
Info hash: 474E40F6F3ECD792D3318EA7A0FD67A754B24967
Category: Categories > Movies
Trackers:
View all torrent trackers >
Health:
 seeds: 23 ,  leechers: 19 |  Update >
Torrent language: English English
Total Size: 1.7 GB
Files List:
3    View torrent files >
Uploader:
showstopper
Torrent added: August 13, 2017, 5:59 am
IMDB: http://www.imdb.com/title/tt3731562
Users rating: ---, not rated. please login to rate.

Download Kong.Skull.Island.2017.720p.BRRIP.HEVC.x265.AC3-MAJESTiC torrent



Torrent Description

Kong.Skull.Island.2017.720p.BRRIP.HEVC.x265.AC3-MAJESTiC

ImDb: http://www.imdb.com/title/tt3731562



Complete name : Kong.Skull.Island.2017.720p.BRRIP.HEVC.x265.AC3-MAJESTiC.mkv
Format : Matroska
Format version : Version 4 / Version 2
File size : 1.66 GiB
Duration : 1 h 58 min
Overall bit rate : 2 009 kb/s
Encoded date : UTC 2017-07-01 13:37:23
Writing application : mkvmerge v8.9.0 ('Father Daughter') 64bit
Writing library : libebml v1.3.3 + libmatroska v1.4.4

Video
ID : 1
Format : HEVC
Format/Info : High Efficiency Video Coding
Format profile : @Main
Codec ID : V_MPEGH/ISO/HEVC
Duration : 1 h 58 min
Bit rate : 1 560 kb/s
Width : 1 280 pixels
Height : 536 pixels
Display aspect ratio : 2.40:1
Frame rate mode : Constant
Frame rate : 23.976 (24000/1001) FPS
Color space : YUV
Chroma subsampling : 4:2:0
Bit depth : 8 bits
Bits/(Pixel*Frame) : 0.095
Stream size : 1.29 GiB (78%)
Writing library : x265 1.9+54-291beccb6760:[Windows][GCC 5.3.0][64 bit] 8bit+10bit+12bit
Encoding settings : wpp / ctu=64 / min-cu-size=8 / max-tu-size=32 / tu-intra-depth=1 / tu-inter-depth=1 / me=3 / subme=3 / merange=57 / rect / no-amp / max-merge=3 / temporal-mvp / no-early-skip / rdpenalty=0 / no-tskip / no-tskip-fast / strong-intra-smoothing / no-lossless / no-cu-lossless / no-constrained-intra / no-fast-intra / open-gop / no-temporal-layers / interlace=0 / keyint=250 / min-keyint=23 / scenecut=40 / rc-lookahead=25 / lookahead-slices=0 / bframes=4 / bframe-bias=0 / b-adapt=2 / ref=4 / limit-refs=3 / limit-modes / weightp / no-weightb / aq-mode=1 / qg-size=32 / aq-strength=1.00 / cbqpoffs=0 / crqpoffs=0 / rd=4 / psy-rd=2.00 / rdoq-level=2 / psy-rdoq=1.00 / no-rd-refine / signhide / deblock / sao / no-sao-non-deblock / b-pyramid / cutree / no-intra-refresh / rc=abr / bitrate=1550 / qcomp=0.60 / qpmin=0 / qpmax=51 / qpstep=4 / ipratio=1.40 / pbratio=1.30
Default : Yes
Forced : No

Audio
ID : 2
Format : AC-3
Format/Info : Audio Coding 3
Format settings, Endianness : Big
Codec ID : A_AC3
Duration : 1 h 58 min
Bit rate mode : Constant
Bit rate : 448 kb/s
Channel(s) : 6 channels
Channel positions : Front: L C R, Side: L R, LFE
Sampling rate : 48.0 kHz
Frame rate : 31.250 FPS (1536 spf)
Bit depth : 16 bits
Compression mode : Lossy
Stream size : 379 MiB (22%)
Language : English
Service kind : Complete Main
Default : Yes
Forced : No

Menu
00:00:00.000 : en:00:00:00.000
00:08:54.743 : en:00:08:54.743
00:19:51.774 : en:00:19:51.774
00:30:01.133 : en:00:30:01.133
00:40:00.106 : en:00:40:00.106
00:50:13.260 : en:00:50:13.260
01:00:49.729 : en:01:00:49.729
01:10:29.600 : en:01:10:29.600
01:18:05.890 : en:01:18:05.890
01:30:12.657 : en:01:30:12.657
01:39:09.026 : en:01:39:09.026
01:47:05.836 : en:01:47:05.836






Click To View Screenshot

Click To View Screenshot

Click To View Screenshot


Download Kong.Skull.Island.2017.720p.BRRIP.HEVC.x265.AC3-MAJESTiC torrent


Related Torrents


Comments   (please login to add your comment!)

secret sky     revolt     amina danger     tubelight     las vegas     rocco power     sinister     iknowthatgirl lola gatsby     suits     sydney cole     funk     stranded teens kelly     moms teach sex     x men apocalypse hindi dubbed     mahabharat episode     the crew     sticky video     shootout at     she cant get any hotter     i fucked your step father     hindi dvd     dinner x265     bring your     dp my world megan rain     


Home - Browse Torrents - Our official mirror : rainbeauxsmith.net

Made with love by an Extratorrent Fan!