Charley Palmer Rothwell | Silicon Valley | [JAPAN pictures] GLOSSMEN NM116 [no mask] (576 264 210).avi
extratorrent2.cc - A Fan Made Alternative Login   |   Register
Important Information
Registrations are open now
-------------------------------------

Please click here to register with Extratorrent2 to recieve latest updates, add bookmarks and to post comments.

-------------------------------------

Your login details will work on both Extratorrent2.cc and Extra2.to

Friends
Friends

1) Filebebo
-------------------------------------
2) MoviesDig
-------------------------------------
3) Torrentz2.cc
-------------------------------------
4) Torrents.me

Extratorrent2 > Categories > Movies > The.House.2017.720p.WEBRiP.DD5.1.x264-LEGi0N torrent


Browse Movies torrents

The.House.2017.720p.WEBRiP.DD5.1.x264-LEGi0N torrent


Download torrent: Download The.House.2017.720p.WEBRiP.DD5.1.x264-LEGi0N torrent Magnet link Bookmark Torrent: The.House.2017.720p.WEBRiP.DD5.1.x264-LEGi0N   The.House.2017.720p.WEBRiP.DD5.1.x264-LEGi0N torrent
Info hash: 4B9630D45E6A0E18FBFC48E2659975B1F3AF6AA4
Category: Categories > Movies
Trackers:
View all torrent trackers >
Health:
 seeds: 26 ,  leechers: 12 |  Update >
Torrent language: English English
Total Size: 1.4 GB
Files List:
3    View torrent files >
Uploader:
showstopper
Torrent added: September 12, 2017, 10:02 pm
IMDB: http://www.imdb.com/title/tt4532384
Users rating: ---, not rated. please login to rate.

Download The.House.2017.720p.WEBRiP.DD5.1.x264-LEGi0N torrent



Torrent Description

The.House.2017.720p.WEBRiP.DD5.1.x264-LEGi0N

ImDb: http://www.imdb.com/title/tt4532384



Complete name : The.House.2017.720p.WEBRiP.DD5.1.x264-LEGi0N.mkv
Format : Matroska
Format version : Version 4 / Version 2
File size : 1.29 GiB
Duration : 1 h 28 min
Overall bit rate : 2 093 kb/s
Movie name : The.House.2017.720p.WEBRiP.DD5.1.x264-LEGi0N
Encoded date : UTC 2017-09-12 20:51:50
Writing application : mkvmerge v10.0.0 ('To Drown In You') 64bit
Writing library : libebml v1.3.4 + libmatroska v1.4.5

Video
ID : 1
Format : AVC
Format/Info : Advanced Video Codec
Format profile :
Format settings, CABAC : Yes
Format settings, ReFrames : 12 frames
Codec ID : V_MPEG4/ISO/AVC
Duration : 1 h 28 min
Bit rate : 1 707 kb/s
Width : 1 280 pixels
Height : 530 pixels
Display aspect ratio : 2.40:1
Frame rate mode : Constant
Frame rate : 23.976 (24000/1001) FPS
Color space : YUV
Chroma subsampling : 4:2:0
Bit depth : 8 bits
Scan type : Progressive
Bits/(Pixel*Frame) : 0.105
Stream size : 1.05 GiB (82%)
Title : The.House.2017.720p.WEBRiP.DD5.1.x264-LEGi0N
Writing library : x264 core 148 r2744 b97ae06
Encoding settings : cabac=1 / ref=12 / deblock=1:-3:-3 / analyse=0x3:0x113 / me=hex / subme=7 / psy=1 / psy_rd=1.00:0.15 / mixed_ref=1 / me_range=16 / chroma_me=1 / trellis=1 / 8x8dct=1 / cqm=0 / deadzone=21,11 / fast_pskip=1 / chroma_qp_offset=-3 / threads=17 / lookahead_threads=4 / sliced_threads=0 / nr=0 / decimate=1 / interlaced=0 / bluray_compat=0 / constrained_intra=0 / bframes=7 / b_pyramid=2 / b_adapt=2 / b_bias=0 / direct=1 / weightb=1 / open_gop=0 / weightp=1 / keyint=250 / keyint_min=23 / scenecut=40 / intra_refresh=0 / rc_lookahead=30 / rc=crf / mbtree=1 / crf=22.0 / qcomp=0.60 / qpmin=0 / qpmax=69 / qpstep=4 / vbv_maxrate=62500 / vbv_bufsize=78125 / crf_max=0.0 / nal_hrd=none / filler=0 / ip_ratio=1.40 / aq=1:1.00
Language : English
Default : Yes
Forced : No
Color range : Limited
Matrix coefficients : BT.709

Audio
ID : 2
Format : AC-3
Format/Info : Audio Coding 3
Format settings, Endianness : Big
Codec ID : A_AC3
Duration : 1 h 28 min
Bit rate mode : Constant
Bit rate : 384 kb/s
Channel(s) : 6 channels
Channel positions : Front: L C R, Side: L R, LFE
Sampling rate : 48.0 kHz
Frame rate : 31.250 FPS (1536 spf)
Bit depth : 16 bits
Compression mode : Lossy
Stream size : 242 MiB (18%)
Title : The.House.2017.720p.WEBRiP.DD5.1.x264-LEGi0N
Language : English
Service kind : Complete Main
Default : Yes
Forced : No

Menu
00:00:00.000 : en:Chapter 01
00:05:00.000 : en:Chapter 02
00:10:00.000 : en:Chapter 03
00:15:00.000 : en:Chapter 04
00:20:00.000 : en:Chapter 05
00:25:00.000 : en:Chapter 06
00:30:00.000 : en:Chapter 07
00:35:00.000 : en:Chapter 08
00:40:00.000 : en:Chapter 09
00:45:00.000 : en:Chapter 10
00:50:00.000 : en:Chapter 11
00:55:00.000 : en:Chapter 12
01:00:00.000 : en:Chapter 13
01:05:00.000 : en:Chapter 14
01:10:00.000 : en:Chapter 15
01:15:00.000 : en:Chapter 16
01:20:00.000 : en:Chapter 17
01:25:00.000 : en:Chapter 18






Click To View Screenshot

Click To View Screenshot

Click To View Screenshot


Download The.House.2017.720p.WEBRiP.DD5.1.x264-LEGi0N torrent


Related Torrents


Comments   (please login to add your comment!)

angela white     femdom jessa     madmax     hindi dual     herlimit     big ass kelsi monroe starts swinging     tamil     bhoomi     russian cute     the deep blue sea     hindi     daughter for sale     japanese schoolgirls school     after dark special     familystrokes alex blake     zz girlfriend exchange     mom     lets go to prison     phere     brazzers     anal sweetheart     massage     pirates of the caribbean     method     


Home - Browse Torrents - Our official mirror : rainbeauxsmith.net

Made with love by an Extratorrent Fan!