Ray Donovan | Lovers in Bloom - Episode 79 | Mandarinas (2013)
extratorrent2.cc - A Fan Made Alternative Login   |   Register
Important Information
Registrations are open now
-------------------------------------

Please click here to register with Extratorrent2 to recieve latest updates, add bookmarks and to post comments.

-------------------------------------

Your login details will work on both Extratorrent2.cc and Extra2.to

Friends
Friends

1) Filebebo
-------------------------------------
2) MoviesDig
-------------------------------------
3) Torrentz2.cc
-------------------------------------
4) Torrents.me

Extratorrent2 > Categories > TV > House MD Season 5 1080p DTS 5.1 x265 HEVC BDRIP Mkv. torrent


Browse TV torrents

House MD Season 5 1080p DTS 5.1 x265 HEVC BDRIP Mkv. torrent


Download torrent: Download House MD Season 5 1080p DTS 5.1 x265 HEVC BDRIP Mkv. torrent Magnet link Bookmark Torrent: House MD Season 5 1080p DTS 5.1 x265 HEVC BDRIP Mkv.   House MD Season 5 1080p DTS 5.1 x265 HEVC BDRIP Mkv. torrent
Info hash: F5134A2DE23B803CF9598AB7BEAC2C8F1E560BAC
Category: Categories > TV
Trackers:
View all torrent trackers >
Health:
 seeds: 0 ,  leechers: 1 |  Update >
Torrent language: English English
Total Size: 30.4 GB
Files List:
24    View torrent files >
Uploader:
Chios
Torrent added: May 25, 2016, 6:35 am
Users rating: ---, not rated. please login to rate.

Download House MD Season 5 1080p DTS 5.1 x265 HEVC BDRIP Mkv. torrent



Torrent Description

General
Unique ID : 216652385710354667238346651523454713033 (0xA2FDBB51C195FE568A8815105035BCC9)
Complete name : /Volumes/LaCie Rugged Thunderbolt/House M.D/S05/S05E01 Dying Changes Everything.mkv
Format : Matroska
Format version : Version 4 / Version 2
File size : 1.12 GiB
Duration : 43mn 29s
Overall bit rate : 3 696 Kbps
Encoded date : UTC 2016-05-14 19:21:51 / UTC 2016-05-08T15:25:00Z
Writing application : mkvmerge v9.1.0 ('Little Earthquakes') 64bit
Writing library : libebml v1.3.3 + libmatroska v1.4.4 / Lavf55.12.0

Video
ID : 1
Format : HEVC
Format/Info : High Efficiency Video Coding
Format profile : @Main
Codec ID : V_MPEGH/ISO/HEVC
Duration : 43mn 29s
Bit rate : 2 854 Kbps
Width : 1 920 pixels
Height : 1 080 pixels
Display aspect ratio : 16:9
Frame rate mode : Constant
Frame rate : 23.976 (24000/1001) fps
Color space : YUV
Chroma subsampling : 4:2:0
Bit depth : 8 bits
Bits/(Pixel*Frame) : 0.057
Stream size : 888 MiB (77%)
Writing library : x265 1.9:[Mac OS X][clang 7.0.0][64 bit] 8bit
Encoding settings : wpp / ctu=64 / min-cu-size=8 / max-tu-size=32 / tu-intra-depth=1 / tu-inter-depth=1 / me=1 / subme=2 / merange=57 / no-rect / no-amp / max-merge=2 / temporal-mvp / no-early-skip / rdpenalty=0 / no-tskip / no-tskip-fast / strong-intra-smoothing / no-lossless / no-cu-lossless / no-constrained-intra / no-fast-intra / open-gop / no-temporal-layers / interlace=0 / keyint=240 / min-keyint=24 / scenecut=40 / rc-lookahead=20 / lookahead-slices=6 / bframes=4 / bframe-bias=0 / b-adapt=2 / ref=3 / limit-refs=3 / no-limit-modes / weightp / no-weightb / aq-mode=1 / qg-size=32 / aq-strength=1.00 / cbqpoffs=0 / crqpoffs=0 / rd=3 / psy-rd=2.00 / rdoq-level=0 / psy-rdoq=0.00 / signhide / deblock / sao / no-sao-non-deblock / b-pyramid / cutree / no-intra-refresh / rc=crf / crf=20.0 / qcomp=0.60 / qpmin=0 / qpmax=51 / qpstep=4 / ipratio=1.40 / pbratio=1.30
Default : Yes
Forced : No
Color range : Limited
Color primaries : BT.709
Transfer characteristics : BT.709
Matrix coefficients : BT.709
Statistics Tags Issue : mkvmerge v9.1.0 ('Little Earthquakes') 64bit 2016-05-14 19:21:51 / mkvmerge v9.1.0 ('Little Earthquakes') 64bit 2016-05-14 19:21:51 / UTC 2016-05-08T15:25:00Z
FromStats_BitRate : 2925604
FromStats_Duration : 00:43:29.816000000
FromStats_FrameCount : 62573
FromStats_StreamSize : 954411070

Audio
ID : 2
Format : DTS
Format/Info : Digital Theater Systems
Mode : 16
Format settings, Endianness : Big
Codec ID : A_DTS
Duration : 43mn 29s
Bit rate mode : Constant
Bit rate : 768 Kbps
Channel(s) : 6 channels
Channel positions : Front: L C R, Side: L R, LFE
Sampling rate : 48.0 KHz
Frame rate : 93.750 fps (512 spf)
Bit depth : 24 bits
Compression mode : Lossy
Delay relative to video : -83ms
Stream size : 239 MiB (21%)
Language : English
Default : Yes
Forced : No
Statistics Tags Issue : mkvmerge v9.1.0 ('Little Earthquakes') 64bit 2016-05-14 19:21:51 / mkvmerge v9.1.0 ('Little Earthquakes') 64bit 2016-05-14 19:21:51 / UTC 2016-05-08T15:25:00Z
FromStats_BitRate : 767999
FromStats_Duration : 00:43:29.867000000
FromStats_FrameCount : 244675
FromStats_StreamSize : 250547200

Text
ID : 3
Format : UTF-8
Codec ID : S_TEXT/UTF8
Codec ID/Info : UTF-8 Plain Text
Language : English
Default : No
Forced : No
Statistics Tags Issue : mkvmerge v9.1.0 ('Little Earthquakes') 64bit 2016-05-14 19:21:51 / mkvmerge v9.1.0 ('Little Earthquakes') 64bit 2016-05-14 19:21:51 / UTC 2016-05-08T15:25:00Z
FromStats_BitRate : 99
FromStats_Duration : 00:42:13.239000000
FromStats_FrameCount : 788
FromStats_StreamSize : 31419

Menu
00:00:00.000 : :00:00:00.000
00:02:08.920 : :00:02:08.837
00:10:11.819 : :00:10:11.736
00:18:58.011 : :00:18:57.928
00:27:00.368 : :00:27:00.285
00:42:47.815 : :00:42:47.690


Download House MD Season 5 1080p DTS 5.1 x265 HEVC BDRIP Mkv. torrent


Related Torrents


Comments   (please login to add your comment!)


Home - Browse Torrents - Our official mirror : rainbeauxsmith.net

Made with love by an Extratorrent Fan!