Vague Citoyenne | Independence Day (1996) Hindi Dubbed [BRRip] | Eva Hesse (2016)
extratorrent2.cc - A Fan Made Alternative Login   |   Register
Important Information
Registrations are open now
-------------------------------------

Please click here to register with Extratorrent2 to recieve latest updates, add bookmarks and to post comments.

-------------------------------------

Your login details will work on both Extratorrent2.cc and Extra2.to

Friends
Friends

1) Filebebo
-------------------------------------
2) MoviesDig
-------------------------------------
3) Torrentz2.cc
-------------------------------------
4) Torrents.me

Extratorrent2 > Categories > Movies > Game of Thrones (2011) (Season 2) (Blu-ray Remux) torrent


Browse Movies torrents

Game of Thrones (2011) (Season 2) (Blu-ray Remux) torrent


Download torrent: Download Game of Thrones (2011) (Season 2) (Blu-ray Remux) torrent Magnet link Bookmark Torrent: Game of Thrones (2011) (Season 2) (Blu-ray Remux)   Game of Thrones (2011) (Season 2) (Blu-ray Remux) torrent
Info hash: D5053DD5AB23C964136FEED5D41E7558B073A3F7
Category: Categories > Movies
Trackers:
View all torrent trackers >
Health:
 seeds: 4 ,  leechers: 10 |  Update >
Torrent language: English English
Total Size: 108.9 GB
Files List:
10    View torrent files >
Uploader:
SpartanMan84
Torrent added: August 30, 2017, 4:01 pm
Users rating: ---, not rated. please login to rate.

Download Game of Thrones (2011) (Season 2) (Blu-ray Remux) torrent



Torrent Description

Code:

General
Complete name               : Game.of.Thrones.2011.Season.2.Blu-ray.Remux.AVC.DTS-HD.MA.5.1.\S02E01.mkv
Format                      : Matroska
Format version              : Version 4 / Version 2
File size                   : 12.4 GiB
Duration                    : 53 min 17 s
Overall bit rate mode       : Variable
Overall bit rate            : 33.3 Mb/s


Video
ID                          : 1
Format                      : AVC
Format/Info                 : Advanced Video Codec
Format profile              :
Format settings, CABAC      : Yes
Format settings, ReFrames   : 4 frames
Codec ID                    : V_MPEG4/ISO/AVC
Duration                    : 52 min 41 s
Bit rate mode               : Variable
Bit rate                    : 29.8 Mb/s
Maximum bit rate            : 35.0 Mb/s
Width                       : 1 920 pixels
Height                      : 1 080 pixels
Display aspect ratio        : 16:9
Frame rate mode             : Constant
Frame rate                  : 23.976 (24000/1001) FPS
Color space                 : YUV
Chroma subsampling          : 4:2:0
Bit depth                   : 8 bits
Scan type                   : Progressive
Bits/(Pixel*Frame)          : 0.600
Stream size                 : 11.0 GiB (89%)
Language                    : Turkish
Default                     : Yes
Forced                      : No


Audio #1
ID                          : 2
Format                      : DTS
Format/Info                 : Digital Theater Systems
Format profile              : MA / Core
Mode                        : 16
Format settings, Endianness : Big
Codec ID                    : A_DTS
Duration                    : 52 min 41 s
Bit rate mode               : Variable / Constant
Bit rate                    : 3 646 kb/s / 1 509 kb/s
Channel(s)                  : 6 channels
Channel positions           : Front: L C R, Side: L R, LFE
Sampling rate               : 48.0 kHz
Frame rate                  : 93.750 FPS (512 spf)
Bit depth                   : 24 bits
Compression mode            : Lossless / Lossy
Stream size                 : 1.34 GiB (11%)
Language                    : English
Default                     : No
Forced                      : No


Audio #2
ID                          : 3
Format                      : AC-3
Format/Info                 : Audio Coding 3
Format settings, Endianness : Big
Codec ID                    : A_AC3
Duration                    : 52 min 41 s
Bit rate mode               : Constant
Bit rate                    : 192 kb/s
Channel(s)                  : 2 channels
Channel positions           : Front: L R
Sampling rate               : 48.0 kHz
Frame rate                  : 31.250 FPS (1536 spf)
Bit depth                   : 16 bits
Compression mode            : Lossy
Stream size                 : 72.4 MiB (1%)
Language                    : Turkish
Service kind                : Complete Main
Default                     : Yes
Forced                      : No


Text
ID                          : 4
Format                      : UTF-8
Codec ID                    : S_TEXT/UTF8
Codec ID/Info               : UTF-8 Plain Text
Duration                    : 53 min 16 s
Bit rate                    : 71 b/s
Count of elements           : 749
Stream size                 : 27.9 KiB (0%)
Language                    : Turkish
Default                     : No
Forced                      : No




Download Game of Thrones (2011) (Season 2) (Blu-ray Remux) torrent


Related Torrents


Comments   (please login to add your comment!)


Home - Browse Torrents - Our official mirror : rainbeauxsmith.net

Made with love by an Extratorrent Fan!