Maskerade (Discworld #18) | Deadpool (2016) | Alain Desrochers
extratorrent2.cc - A Fan Made Alternative Login   |   Register
Important Information
Registrations are open now
-------------------------------------

Please click here to register with Extratorrent2 to recieve latest updates, add bookmarks and to post comments.

-------------------------------------

Your login details will work on both Extratorrent2.cc and Extra2.to

Friends
Friends

1) Filebebo
-------------------------------------
2) MoviesDig
-------------------------------------
3) Torrentz2.cc
-------------------------------------
4) Torrents.me

Extratorrent2 > Categories > TV > Arrow S01E18 Brrip 720p Dual Audio Hindi English Esub Rinku torrent


Browse TV torrents

Arrow S01E18 Brrip 720p Dual Audio Hindi English Esub Rinku torrent


Download torrent: Download Arrow S01E18 Brrip 720p Dual Audio Hindi English Esub Rinku torrent Magnet link Bookmark Torrent: Arrow S01E18 Brrip 720p Dual Audio Hindi English Esub Rinku   Arrow S01E18 Brrip 720p Dual Audio Hindi English Esub Rinku torrent
Info hash: 415F29628074C5A14DEF7A7DBC7E98616BB3101B
Category: Categories > TV
Trackers:
View all torrent trackers >
Health:
 seeds: 0 ,  leechers: 26 |  Update >
Torrent language: Hindi Hindi
Total Size: 420.5 MB
Files List:
9    View torrent files >
Uploader:
sujit2324
Torrent added: July 26, 2017, 8:02 am
Tags: ARROW, HINDI
Users rating: ---, not rated. please login to rate.

Download Arrow S01E18 Brrip 720p Dual Audio Hindi English Esub Rinku torrent



Torrent Description







Arrow S01E18 Brrip 720p Dual Audio Hindi English Esub Rinku


IMDB Link

Join Us Now


Sample Included in Torrent



Video
ID : 1
Format : AVC
Format/Info : Advanced Video Codec
Format profile :
Format settings, CABAC : Yes
Format settings, RefFrames : 5 frames
Codec ID : V_MPEG4/ISO/AVC
Duration : 42 min 23 s
Bit rate : 1 088 kb/s
Width : 1 280 pixels
Height : 720 pixels
Display aspect ratio : 16:9
Frame rate mode : Constant
Frame rate : 23.976 (24000/1001) FPS
Color space : YUV
Chroma subsampling : 4:2:0
Bit depth : 8 bits
Scan type : Progressive
Bits/(Pixel*Frame) : 0.049
Stream size : 330 MiB (81%)
Title : Rinku
Language : English
Default : Yes
Forced : No

Audio #1
ID : 2
Format : AC-3
Format/Info : Audio Coding 3
Format settings, Endianness : Big
Codec ID : A_AC3
Duration : 42 min 24 s
Bit rate mode : Constant
Bit rate : 128 kb/s
Channel(s) : 2 channels
Channel positions : Front: L R
Sampling rate : 44.1 kHz
Frame rate : 28.711 FPS (1536 SPF)
Bit depth : 16 bits
Compression mode : Lossy
Stream size : 38.8 MiB (10%)
Title : Hindi ~Rinku
Language : Hindi
Service kind : Complete Main
Default : Yes
Forced : No

Audio #2
ID : 3
Format : AC-3
Format/Info : Audio Coding 3
Format settings, Endianness : Big
Codec ID : A_AC3
Duration : 42 min 24 s
Bit rate mode : Constant
Bit rate : 128 kb/s
Channel(s) : 2 channels
Channel positions : Front: L R
Sampling rate : 44.1 kHz
Frame rate : 28.711 FPS (1536 SPF)
Bit depth : 16 bits
Compression mode : Lossy
Stream size : 38.8 MiB (10%)
Title : English ~Rinku
Language : English
Service kind : Complete Main
Default : No
Forced : No

Text
ID : 4
Format : UTF-8
Codec ID : S_TEXT/UTF8
Codec ID/Info : UTF-8 Plain Text
Duration : 40 min 9 s
Bit rate : 0 b/s
Count of elements : 3
Stream size : 269 Bytes (0%)
Title : English ~Rinku
Language : English
Default : Yes
Forced : No












Download Arrow S01E18 Brrip 720p Dual Audio Hindi English Esub Rinku torrent




Comments   (please login to add your comment!)

rob roy     relaxxxed 2017     12 2017     street     spacewalk     the mummy english     singh is bliing     apk     shrek 2 2004     the olympic interchange 2     nekane sweet legalporno     100     sneaky     leona levi     sister     alexis texas     gio290     pirates of the caribbean     anno     arrow     proshow producer     vivegam tamil 2017     720p hevc     massagerooms 2017     


Home - Browse Torrents - Our official mirror : rainbeauxsmith.net

Made with love by an Extratorrent Fan!