Vague Citoyenne | Independence Day (1996) Hindi Dubbed [BRRip] | Eva Hesse (2016)
extratorrent2.cc - A Fan Made Alternative Login   |   Register
Important Information
Registrations are open now
-------------------------------------

Please click here to register with Extratorrent2 to recieve latest updates, add bookmarks and to post comments.

-------------------------------------

Your login details will work on both Extratorrent2.cc and Extra2.to

Friends
Friends

1) Filebebo
-------------------------------------
2) MoviesDig
-------------------------------------
3) Torrentz2.cc
-------------------------------------
4) Torrents.me

Extratorrent2 > Categories > TV > Arrow S01E21 720p BluRay Dual Audio Hindi English Esub R!nku Team EDM torrent


Browse TV torrents

Arrow S01E21 720p BluRay Dual Audio Hindi English Esub R!nku Team EDM torrent


Download torrent: Download Arrow S01E21 720p BluRay Dual Audio Hindi English Esub R!nku Team EDM torrent Magnet link Bookmark Torrent: Arrow S01E21 720p BluRay Dual Audio Hindi English Esub R!nku Team EDM   Arrow S01E21 720p BluRay Dual Audio Hindi English Esub R!nku Team EDM torrent
Info hash: 42103647ECDFD64453A3D2D29576AAC9515C9023
Category: Categories > TV
Trackers:
View all torrent trackers >
Health:
 seeds: 0 ,  leechers: 36 |  Update >
Torrent language: Hindi Hindi
Total Size: 418.5 MB
Files List:
16    View torrent files >
Uploader:
rinku4445
Torrent added: August 25, 2017, 12:04 pm
Tags: Arrow, Hindi, R!nku, EDM, E20
Users rating: ---, not rated. please login to rate.

Download Arrow S01E21 720p BluRay Dual Audio Hindi English Esub R!nku Team EDM torrent



Torrent Description





Arrow S01E21 720p BluRay Dual Audio Hindi English Esub R!nku

IMDB Link

Join Us Now

It's Urdu Dubbed

Perfact Snyc By MySelf

Sample Included in Torrent

Video
ID                                       : 1
Format                                   : AVC
Format/Info                              : Advanced Video Codec
Format profile                           :
Format settings, CABAC                   : Yes
Format settings, RefFrames               : 5 frames
Codec ID                                 : V_MPEG4/ISO/AVC
Duration                                 : 42 min 32 s
Bit rate                                 : 1 084 kb/s
Width                                    : 1 280 pixels
Height                                   : 720 pixels
Display aspect ratio                     : 16:9
Frame rate mode                          : Constant
Frame rate                               : 23.976 (24000/1001) FPS
Color space                              : YUV
Chroma subsampling                       : 4:2:0
Bit depth                                : 8 bits
Scan type                                : Progressive
Bits/(Pixel*Frame)                       : 0.049
Stream size                              : 330 MiB (85%)
Title                                    : R!nku  ~Arrow SO1-EO21 720p Bluray Dual Audio [hin+eng]--Rinku--
Default                                  : Yes
Forced                                   : No

Audio #1
ID                                       : 2
Format                                   : AAC
Format/Info                              : Advanced Audio Codec
Format profile                           : HE-AAC / LC
Codec ID                                 : A_AAC
Duration                                 : 42 min 32 s
Bit rate                                 : 63.9 kb/s
Channel(s)                               : 2 channels
Channel positions                        : Front: L R
Sampling rate                            : 48.0 kHz / 24.0 kHz
Frame rate                               : 23.438 FPS (1024 SPF)
Compression mode                         : Lossy
Delay relative to video                  : 31 ms
Stream size                              : 19.5 MiB (5%)
Title                                    : 2.0 R!nku
Language                                 : English
Default                                  : Yes
Forced                                   : No

Audio #2
ID                                       : 3
Format                                   : AAC
Format/Info                              : Advanced Audio Codec
Format profile                           : LC
Codec ID                                 : A_AAC
Duration                                 : 42 min 32 s
Bit rate                                 : 125 kb/s
Channel(s)                               : 2 channels
Channel positions                        : Front: L R
Sampling rate                            : 44.1 kHz
Frame rate                               : 43.066 FPS (1024 SPF)
Compression mode                         : Lossy
Stream size                              : 38.2 MiB (10%)
Title                                    : 2.0 R!nku
Language                                 : Hindi
Default                                  : No
Forced                                   : No

Text
ID                                       : 4
Format                                   : UTF-8
Codec ID                                 : S_TEXT/UTF8
Codec ID/Info                            : UTF-8 Plain Text
Duration                                 : 40 min 9 s
Bit rate                                 : 0 b/s
Count of elements                        : 3
Stream size                              : 269 Bytes (0%)
Title                                    : R!nku
Language                                 : English
Default                                  : Yes
Forced                                   : No
















Download Arrow S01E21 720p BluRay Dual Audio Hindi English Esub R!nku Team EDM torrent


Related Torrents


Comments   (please login to add your comment!)


Home - Browse Torrents - Our official mirror : rainbeauxsmith.net

Made with love by an Extratorrent Fan!