Jane the Virgin | ► Regarder Mentalist Saison 2 ├ępisode 20 : La dame en rouge gratuit en streaming HD & VO / VF / VOST / VOSTFR | Little Britain
extratorrent2.cc - A Fan Made Alternative Login   |   Register
Important Information
Registrations are open now
-------------------------------------

Please click here to register with Extratorrent2 to recieve latest updates, add bookmarks and to post comments.

-------------------------------------

Your login details will work on both Extratorrent2.cc and Extra2.to

Friends
Friends

1) Filebebo
-------------------------------------
2) MoviesDig
-------------------------------------
3) Torrentz2.cc
-------------------------------------
4) Torrents.me

Extratorrent2 > Categories > TV > The.Flash.2014.S03E04.MULTi.720p.HDTV.x264-SH0W torrent


Browse TV torrents

The.Flash.2014.S03E04.MULTi.720p.HDTV.x264-SH0W torrent


Download torrent: Download The.Flash.2014.S03E04.MULTi.720p.HDTV.x264-SH0W torrent Magnet link Bookmark Torrent: The.Flash.2014.S03E04.MULTi.720p.HDTV.x264-SH0W   The.Flash.2014.S03E04.MULTi.720p.HDTV.x264-SH0W torrent
Info hash: 4238339722B342ACF9AF0332205E06AC14F69551
Category: Categories > TV
Trackers:
View all torrent trackers >
Health:
 seeds: 1 ,  leechers: 8 |  Update >
Torrent language: English English
Total Size: 928.1 MB
Files List:
2    View torrent files >
Uploader:
showstopper
Torrent added: July 27, 2017, 2:00 am
Users rating: ---, not rated. please login to rate.

Download The.Flash.2014.S03E04.MULTi.720p.HDTV.x264-SH0W torrent



Torrent Description

The.Flash.2014.S03E04.MULTi.720p.HDTV.x264-SH0W



Complete name : the.flash.2014.s03e04.multi.720p.hdtv.x264-sh0w.mkv
Format : Matroska
Format version : Version 4 / Version 2
File size : 928 MiB
Duration : 40 min 33 s
Overall bit rate : 3 200 kb/s
Encoded date : UTC 2017-07-27 00:47:53
Writing application : mkvmerge v14.0.0 ('Flow') 64bit
Writing library : libebml v1.3.4 + libmatroska v1.4.5

Video
ID : 1
Format : AVC
Format/Info : Advanced Video Codec
Format profile :
Format settings, CABAC : Yes
Format settings, ReFrames : 5 frames
Codec ID : V_MPEG4/ISO/AVC
Duration : 40 min 33 s
Bit rate : 2 429 kb/s
Width : 1 280 pixels
Height : 720 pixels
Display aspect ratio : 16:9
Frame rate mode : Constant
Frame rate : 25.000 FPS
Color space : YUV
Chroma subsampling : 4:2:0
Bit depth : 8 bits
Scan type : Progressive
Bits/(Pixel*Frame) : 0.105
Stream size : 705 MiB (76%)
Writing library : x264 core 152 r2851 ba24899
Encoding settings : cabac=1 / ref=5 / deblock=1:0:0 / analyse=0x3:0x113 / me=umh / subme=9 / psy=1 / psy_rd=1.00:0.00 / mixed_ref=1 / me_range=16 / chroma_me=1 / trellis=2 / 8x8dct=1 / cqm=0 / deadzone=21,11 / fast_pskip=1 / chroma_qp_offset=-2 / threads=18 / lookahead_threads=1 / sliced_threads=0 / nr=0 / decimate=1 / interlaced=0 / bluray_compat=0 / constrained_intra=0 / bframes=3 / b_pyramid=2 / b_adapt=1 / b_bias=0 / direct=3 / weightb=1 / open_gop=0 / weightp=2 / keyint=250 / keyint_min=25 / scenecut=40 / intra_refresh=0 / rc_lookahead=50 / rc=crf / mbtree=1 / crf=18.0 / qcomp=0.60 / qpmin=0 / qpmax=69 / qpstep=4 / ip_ratio=1.40 / aq=1:1.00
Default : Yes
Forced : No
Color range : Limited
Matrix coefficients : BT.709

Audio #1
ID : 2
Format : MPEG Audio
Format version : Version 1
Format profile : Layer 2
Codec ID : A_MPEG/L2
Codec ID/Hint : MP2
Duration : 40 min 33 s
Bit rate mode : Constant
Bit rate : 384 kb/s
Channel(s) : 2 channels
Sampling rate : 48.0 kHz
Frame rate : 41.667 FPS (1152 spf)
Compression mode : Lossy
Stream size : 111 MiB (12%)
Title : French
Language : French
Default : Yes
Forced : No

Audio #2
ID : 3
Format : MPEG Audio
Format version : Version 1
Format profile : Layer 2
Codec ID : A_MPEG/L2
Codec ID/Hint : MP2
Duration : 40 min 33 s
Bit rate mode : Constant
Bit rate : 384 kb/s
Channel(s) : 2 channels
Sampling rate : 48.0 kHz
Frame rate : 41.667 FPS (1152 spf)
Compression mode : Lossy
Stream size : 111 MiB (12%)
Title : English
Language : English
Default : No
Forced : No

Text #1
ID : 4
Format : UTF-8
Codec ID : S_TEXT/UTF8
Codec ID/Info : UTF-8 Plain Text
Duration : 39 min 13 s
Bit rate : 71 b/s
Count of elements : 660
Stream size : 20.7 KiB (0%)
Title : French
Language : French
Default : No
Forced : No

Text #2
ID : 5
Format : UTF-8
Codec ID : S_TEXT/UTF8
Codec ID/Info : UTF-8 Plain Text
Duration : 40 min 12 s
Bit rate : 73 b/s
Count of elements : 852
Stream size : 21.8 KiB (0%)
Title : French (SDH)
Language : French
Default : No
Forced : No






Click To View Screenshot

Click To View Screenshot

Click To View Screenshot


Download The.Flash.2014.S03E04.MULTi.720p.HDTV.x264-SH0W torrent


Related Torrents


Comments   (please login to add your comment!)


Home - Browse Torrents - Our official mirror : rainbeauxsmith.net

Made with love by an Extratorrent Fan!