Being Mary Jane saison 2 ├ępisode 3 | Mario Kart Black Custom (Wii) | Storage Wars: Texas Season 2 Episode 20
extratorrent2.cc - A Fan Made Alternative Login   |   Register
Important Information
Registrations are open now
-------------------------------------

Please click here to register with Extratorrent2 to recieve latest updates, add bookmarks and to post comments.

-------------------------------------

Your login details will work on both Extratorrent2.cc and Extra2.to

Friends
Friends

1) MoviesDig
-------------------------------------
2) Torrentz2.cc
-------------------------------------
3) Torrents.me

Extratorrent2 > Categories > Movies > The.Spiderwick.Chronicles.2008 HEVC-d3g[PRiME] torrent


Browse Movies torrents

The.Spiderwick.Chronicles.2008 HEVC-d3g[PRiME] torrent


The Spiderwick Chronicles (2008)
Name: The Spiderwick Chronicles
Released Year: 2008
Runtime: 96 mins
Gener: Adventure, Family, Fantas
Director: Mark Waters
Country: USA
IMDB Rating: 6.6/10
Plot: Upon moving into the run-down Spiderwick Estate with their mother, twin brothers Jared and Simon Grace, along with their sister Mallory, find themselves pulled into an alternate world full of faeries and other creatures.

Download torrent: Download The.Spiderwick.Chronicles.2008 HEVC-d3g[PRiME] torrent Magnet link Bookmark Torrent: The.Spiderwick.Chronicles.2008 HEVC-d3g[PRiME]   The.Spiderwick.Chronicles.2008 HEVC-d3g[PRiME] torrent
Info hash: 0AC1F0570EFC72EA4BF53761E2BA0FBEAF1F13E8
Category: Categories > Movies
Trackers:
View all torrent trackers >
Health:
 seeds: 5 ,  leechers: 1 |  Update >
Torrent language: English English
Total Size: 1.9 GB
Files List:
4    View torrent files >
Uploader:
showstopper
Torrent added: February 22, 2017, 7:37 am
IMDB: http://www.imdb.com/title/tt0416236
Users rating: ---, not rated. please login to rate.

Download The.Spiderwick.Chronicles.2008 HEVC-d3g[PRiME] torrent



Torrent Description


The.Spiderwick.Chronicles.2008 HEVC-d3g[PRiME]

ImDb: http://www.imdb.com/title/tt0416236



Complete name : The Spiderwick Chronicles 2008 BluRay 1080p AC3 HEVC-d3g[PRiME].mkv
Format : Matroska
Format version : Version 4 / Version 2
File size : 1.85 GiB
Duration : 1 h 35 min
Overall bit rate : 2 769 kb/s
Movie name : The Spiderwick Chronicles 2008 BluRay 1080p AC3 HEVC-d3g
Encoded date : UTC 2017-01-25 08:23:12
Writing application : DVDFab 10.0.2.0
Writing library : libebml v1.3.4 + libmatroska v1.4.5

Video
ID : 1
Format : HEVC
Format/Info : High Efficiency Video Coding
Format profile : @Main
Codec ID : V_MPEGH/ISO/HEVC
Duration : 1 h 35 min
Bit rate : 2 312 kb/s
Width : 1 920 pixels
Height : 816 pixels
Display aspect ratio : 2.35:1
Frame rate mode : Constant
Frame rate : 23.976 (24000/1001) FPS
Color space : YUV
Chroma subsampling : 4:2:0
Bit depth : 8 bits
Bits/(Pixel*Frame) : 0.062
Stream size : 1.55 GiB (83%)
Default : Yes
Forced : No

Audio
ID : 2
Format : AC-3
Format/Info : Audio Coding 3
Mode extension : CM (complete main)
Format settings, Endianness : Big
Codec ID : A_AC3
Duration : 1 h 35 min
Bit rate mode : Constant
Bit rate : 448 kb/s
Channel(s) : 6 channels
Channel positions : Front: L C R, Side: L R, LFE
Sampling rate : 48.0 kHz
Frame rate : 31.250 FPS (1536 spf)
Compression mode : Lossy
Stream size : 307 MiB (16%)
Language : English
Default : Yes
Forced : No

Text
ID : 3
Format : VobSub
Codec ID : S_VOBSUB
Codec ID/Info : Picture based subtitle format used on DVDs
Duration : 1 h 23 min
Bit rate : 9 371 b/s
Count of elements : 1095
Stream size : 5.62 MiB (0%)
Language : English
Default : No
Forced : No

Menu
00:00:00.000 : en:(01)00:00:00:000
00:05:59.150 : en:(02)00:05:59:150
00:12:47.141 : en:(03)00:12:47:141
00:15:14.163 : en:(04)00:15:14:163
00:19:58.989 : en:(05)00:19:58:989
00:27:14.591 : en:(06)00:27:14:591
00:37:45.263 : en:(07)00:37:45:263
00:46:33.540 : en:(08)00:46:33:540
00:54:21.007 : en:(09)00:54:21:007
01:03:28.888 : en:(10)01:03:28:888
01:09:44.221 : en:(11)01:09:44:221
01:22:02.542 : en:(12)01:22:02:542




Click Image To View Full Size


Click To View Screenshot
Click To View Screenshot
Click To View Screenshot


Download The.Spiderwick.Chronicles.2008 HEVC-d3g[PRiME] torrent


Related Torrents


Comments   (please login to add your comment!)


Home - Browse Torrents - Our official mirror : rainbeauxsmith.net

Made with love by an Extratorrent Fan!