Pnk - Just Give Me A Reason Feat Nate Ruess | Super Power | @dumbythegrey
extratorrent2.cc - A Fan Made Alternative Login   |   Register
Important Information
Registrations are open now
-------------------------------------

Please click here to register with Extratorrent2 to recieve latest updates, add bookmarks and to post comments.

-------------------------------------

Your login details will work on both Extratorrent2.cc and Extra2.to

Friends
Friends

1) Filebebo
-------------------------------------
2) MoviesDig
-------------------------------------
3) Torrentz2.cc
-------------------------------------
4) Torrents.me

Extratorrent2 > Categories > Movies > Baby.Driver.2017.1080p.AMZN.WEB-DL.DD+5.1.H.264-SiGMA torrent


Browse Movies torrents

Baby.Driver.2017.1080p.AMZN.WEB-DL.DD+5.1.H.264-SiGMA torrent


Baby Driver (2017)
Name: Baby Driver
Released Year: 2017
Runtime: 113 mins
Gener: Action, Crime, Music
Director: Edgar Wright
Country: UK, USA
IMDB Rating: 8.5/10
Plot: After being coerced into working for a crime boss, a young getaway driver finds himself taking part in a heist doomed to fail.

Download torrent: Download Baby.Driver.2017.1080p.AMZN.WEB-DL.DD+5.1.H.264-SiGMA torrent Magnet link Bookmark Torrent: Baby.Driver.2017.1080p.AMZN.WEB-DL.DD+5.1.H.264-SiGMA   Baby.Driver.2017.1080p.AMZN.WEB-DL.DD+5.1.H.264-SiGMA torrent
Info hash: 1F7E1C8E9271CA11620639CFED5D2569BE042E17
Category: Categories > Movies
Trackers:
View all torrent trackers >
Health:
 seeds: 1 ,  leechers: 25 |  Update >
Torrent language: English English
Total Size: 9.9 GB
Files List:
1    View torrent files >
Uploader:
showstopper
Torrent added: September 13, 2017, 1:01 am
IMDB: http://www.imdb.com/title/tt3890160
Users rating: ---, not rated. please login to rate.

Download Baby.Driver.2017.1080p.AMZN.WEB-DL.DD+5.1.H.264-SiGMA torrent



Torrent Description

Baby.Driver.2017.1080p.AMZN.WEB-DL.DD+5.1.H.264-SiGMA

ImDb: http://www.imdb.com/title/tt3890160



Complete name : Baby.Driver.2017.1080p.AMZN.WEB-DL.DD+5.1.H.264-SiGMA.mkv
Format : Matroska
Format version : Version 4 / Version 2
File size : 9.94 GiB
Duration : 1 h 52 min
Overall bit rate mode : Variable
Overall bit rate : 12.6 Mb/s
Encoded date : UTC 2017-09-12 15:29:41
Writing application : mkvmerge v8.8.0 ('Wind at my back') 64bit
Writing library : libebml v1.3.3 + libmatroska v1.4.4

Video
ID : 1
Format : AVC
Format/Info : Advanced Video Codec
Format profile :
Format settings, CABAC : Yes
Format settings, ReFrames : 4 frames
Codec ID : V_MPEG4/ISO/AVC
Duration : 1 h 52 min
Bit rate mode : Variable
Bit rate : 12.0 Mb/s
Maximum bit rate : 15.0 Mb/s
Width : 1 920 pixels
Height : 800 pixels
Display aspect ratio : 2.40:1
Frame rate mode : Constant
Frame rate : 23.976 (24000/1001) FPS
Color space : YUV
Chroma subsampling : 4:2:0
Bit depth : 8 bits
Scan type : Progressive
Bits/(Pixel*Frame) : 0.325
Stream size : 9.43 GiB (95%)
Default : Yes
Forced : No
Color range : Limited
Color primaries : BT.709
Transfer characteristics : BT.709
Matrix coefficients : BT.709

Audio
ID : 2
Format : E-AC-3
Format/Info : Enhanced Audio Coding 3
Format settings, Endianness : Big
Codec ID : A_EAC3
Duration : 1 h 52 min
Bit rate mode : Constant
Bit rate : 640 kb/s
Channel(s) : 6 channels
Channel positions : Front: L C R, Side: L R, LFE
Sampling rate : 48.0 kHz
Frame rate : 187.500 FPS (256 spf)
Compression mode : Lossy
Stream size : 516 MiB (5%)
Language : English
Service kind : Complete Main
Default : Yes
Forced : No

Text
ID : 3
Format : UTF-8
Codec ID : S_TEXT/UTF8
Codec ID/Info : UTF-8 Plain Text
Duration : 1 h 51 min
Bit rate : 78 b/s
Count of elements : 2275
Stream size : 64.3 KiB (0%)
Language : English
Default : No
Forced : No






Click To View Screenshot

Click To View Screenshot

Click To View Screenshot


Download Baby.Driver.2017.1080p.AMZN.WEB-DL.DD+5.1.H.264-SiGMA torrent


Related Torrents


Comments   (please login to add your comment!)

the americans     anji     hot and mean     adria rae     splooger paige delight     hindi     dual audio     eos     kat monroe 720p     basic instinct     beautiful tits 4     cook up a storm 2017     gravity 2013     1080p dolores claiborne     utr     power rangers     my friends hot mom 58     desi xxx pack     fear walking dead s03e08     rambo     bailey doing yoga     buck angel superstar     blink 182     ambika gold carry cherry     


Home - Browse Torrents - Our official mirror : rainbeauxsmith.net

Made with love by an Extratorrent Fan!