Rani Tu Mai Raja songpk download mp3 | pretty table avec des chaises pas cher | [P] Тетрадь смерти (Death Note) 2017 P WEB-DLRip 14OOMB_reclame avi
extratorrent2.cc - A Fan Made Alternative Login   |   Register
Important Information
Registrations are open now
-------------------------------------

Please click here to register with Extratorrent2 to recieve latest updates, add bookmarks and to post comments.

-------------------------------------

Your login details will work on both Extratorrent2.cc and Extra2.to

Friends
Friends

1) Filebebo
-------------------------------------
2) MoviesDig
-------------------------------------
3) Torrentz2.cc
-------------------------------------
4) Torrents.me

Extratorrent2 > Categories > Movies > Despicable.Me.3.2017.720p.WEBRiP.DD5.1.x264-LEGi0N torrent


Browse Movies torrents

Despicable.Me.3.2017.720p.WEBRiP.DD5.1.x264-LEGi0N torrent


Despicable Me 3 (2017)
Name: Despicable Me 3
Released Year: 2017
Runtime: 96 mins
Gener: Animation, Action, Advent
Director: Eric Guillon|Kyle Balda|Pierre Coffin
Country: USA
IMDB Rating: N/A
Plot: Gru meets his twin brother, Dru, who he never knew about.

Download torrent: Download Despicable.Me.3.2017.720p.WEBRiP.DD5.1.x264-LEGi0N torrent Magnet link Bookmark Torrent: Despicable.Me.3.2017.720p.WEBRiP.DD5.1.x264-LEGi0N   Despicable.Me.3.2017.720p.WEBRiP.DD5.1.x264-LEGi0N torrent
Info hash: A78A60EF245D5489ADFCC93C39039256F35BB60B
Category: Categories > Movies
Trackers:
View all torrent trackers >
Health:
 seeds: 1 ,  leechers: 9 |  Update >
Torrent language: English English
Total Size: 1.3 GB
Files List:
3    View torrent files >
Uploader:
showstopper
Torrent added: September 12, 2017, 11:02 pm
IMDB: http://www.imdb.com/title/tt3469046
Users rating: ---, not rated. please login to rate.

Download Despicable.Me.3.2017.720p.WEBRiP.DD5.1.x264-LEGi0N torrent



Torrent Description

Despicable.Me.3.2017.720p.WEBRiP.DD5.1.x264-LEGi0N

ImDb: http://www.imdb.com/title/tt3469046



Complete name : Despicable.Me.3.2017.720p.WEBRiP.DD5.1.x264-LEGi0N.mkv
Format : Matroska
Format version : Version 4 / Version 2
File size : 1.27 GiB
Duration : 1 h 30 min
Overall bit rate : 2 017 kb/s
Movie name : Despicable.Me.3.2017.720p.WEBRiP.DD5.1.x264-LEGi0N
Encoded date : UTC 2017-09-12 21:24:54
Writing application : mkvmerge v10.0.0 ('To Drown In You') 64bit
Writing library : libebml v1.3.4 + libmatroska v1.4.5

Video
ID : 1
Format : AVC
Format/Info : Advanced Video Codec
Format profile :
Format settings, CABAC : Yes
Format settings, ReFrames : 9 frames
Codec ID : V_MPEG4/ISO/AVC
Duration : 1 h 30 min
Bit rate : 1 633 kb/s
Width : 1 280 pixels
Height : 532 pixels
Display aspect ratio : 2.40:1
Frame rate mode : Constant
Frame rate : 24.000 FPS
Color space : YUV
Chroma subsampling : 4:2:0
Bit depth : 8 bits
Scan type : Progressive
Bits/(Pixel*Frame) : 0.100
Stream size : 1.03 GiB (81%)
Title : Despicable.Me.3.2017.720p.WEBRiP.DD5.1.x264-LEGi0N
Writing library : x264 core 148 r2744 b97ae06
Encoding settings : cabac=1 / ref=9 / deblock=1:1:1 / analyse=0x3:0x113 / me=hex / subme=7 / psy=1 / psy_rd=0.40:0.00 / mixed_ref=1 / me_range=16 / chroma_me=1 / trellis=1 / 8x8dct=1 / cqm=0 / deadzone=21,11 / fast_pskip=0 / chroma_qp_offset=-2 / threads=17 / lookahead_threads=4 / sliced_threads=0 / nr=0 / decimate=1 / interlaced=0 / bluray_compat=0 / constrained_intra=0 / bframes=6 / b_pyramid=2 / b_adapt=2 / b_bias=0 / direct=1 / weightb=1 / open_gop=0 / weightp=1 / keyint=250 / keyint_min=24 / scenecut=40 / intra_refresh=0 / rc_lookahead=30 / rc=crf / mbtree=1 / crf=22.0 / qcomp=0.60 / qpmin=0 / qpmax=69 / qpstep=4 / vbv_maxrate=62500 / vbv_bufsize=78125 / crf_max=0.0 / nal_hrd=none / filler=0 / ip_ratio=1.40 / aq=1:0.90
Language : English
Default : Yes
Forced : No
Color range : Limited
Matrix coefficients : BT.709

Audio
ID : 2
Format : AC-3
Format/Info : Audio Coding 3
Format settings, Endianness : Big
Codec ID : A_AC3
Duration : 1 h 29 min
Bit rate mode : Constant
Bit rate : 384 kb/s
Channel(s) : 6 channels
Channel positions : Front: L C R, Side: L R, LFE
Sampling rate : 48.0 kHz
Frame rate : 31.250 FPS (1536 spf)
Bit depth : 16 bits
Compression mode : Lossy
Stream size : 246 MiB (19%)
Title : Despicable.Me.3.2017.720p.WEBRiP.DD5.1.x264-LEGi0N
Language : English
Service kind : Complete Main
Default : Yes
Forced : No

Menu
00:00:00.000 : :1
00:03:07.145 : :2
00:07:59.020 : :3
00:11:13.881 : :4
00:16:16.808 : :5
00:20:08.539 : :6
00:24:09.029 : :7
00:28:58.068 : :8
00:32:56.388 : :9
00:39:02.879 : :10
00:42:45.226 : :11
00:46:48.218 : :12
00:50:56.674 : :13
00:56:13.114 : :14
01:00:03.302 : :15
01:05:42.265 : :16
01:10:15.579 : :17
01:14:34.795 : :18
01:19:30.756 : :19
01:21:57.985 : :20






Click To View Screenshot

Click To View Screenshot

Click To View Screenshot


Download Despicable.Me.3.2017.720p.WEBRiP.DD5.1.x264-LEGi0N torrent


Related Torrents


Comments   (please login to add your comment!)

hindi     dual audio     eos     kat monroe 720p     basic instinct     beautiful tits 4     cook up a storm 2017     gravity 2013     1080p dolores claiborne     utr     power rangers     my friends hot mom 58     desi xxx pack     fear walking dead s03e08     rambo     bailey doing yoga     buck angel superstar     blink 182     ambika gold carry cherry     lynda     xmen     the expendables     makoto shiraishi     best of 50     


Home - Browse Torrents - Our official mirror : rainbeauxsmith.net

Made with love by an Extratorrent Fan!