Temporada 1 | Margreth Thursday - Das M├Ądchen, das an einem Donn | Desert Punk
extratorrent2.cc - A Fan Made Alternative Login   |   Register
Important Information
Registrations are open now
-------------------------------------

Please click here to register with Extratorrent2 to recieve latest updates, add bookmarks and to post comments.

-------------------------------------

Your login details will work on both Extratorrent2.cc and Extra2.to

Friends
Friends

1) MoviesDig
-------------------------------------
2) Torrentz2.cc
-------------------------------------
3) Torrents.me

Extratorrent2 > Categories > Movies > Kong: Skull Island (2017) (4K Remux) torrent


Browse Movies torrents

Kong: Skull Island (2017) (4K Remux) torrent


Download torrent: Download Kong: Skull Island (2017) (4K Remux) torrent Magnet link Bookmark Torrent: Kong: Skull Island (2017) (4K Remux)   Kong: Skull Island (2017) (4K Remux) torrent
Info hash: 963AA4EB3DFACEBE13446E133FE6A3EF3FED6C26
Category: Categories > Movies
Trackers:
View all torrent trackers >
Health:
 seeds: 6 ,  leechers: 13 |  Update >
Torrent language: English English
Total Size: 45.6 GB
Files List:
1    View torrent files >
Uploader:
SpartanMan84
Torrent added: August 30, 2017, 2:51 pm
Users rating: ---, not rated. please login to rate.

Download Kong: Skull Island (2017) (4K Remux) torrent



Torrent Description

Code:

General
Complete name : Kong.Skull.Island.2017.4K.Remux.HEVC.TrueHD.7.1.mkv
Format : Matroska
Format version : Version 4 / Version 2
File size : 45.6 GiB
Duration : 1 h 58 min
Overall bit rate mode : Variable
Overall bit rate : 55.2 Mb/s


Video
ID : 1
Format : HEVC
Format/Info : High Efficiency Video Coding
Format profile : Main @High
Codec ID : V_MPEGH/ISO/HEVC
Duration : 1 h 58 min
Bit rate : 50.0 Mb/s
Width : 3 840 pixels
Height : 2 160 pixels
Display aspect ratio : 16:9
Frame rate mode : Constant
Frame rate : 23.976 (24000/1001) FPS
Color space : YUV
Chroma subsampling : 4:2:0
Bit depth : 10 bits
Bits/(Pixel*Frame) : 0.251
Stream size : 41.3 GiB (91%)
Language : Turkish
Default : Yes
Forced : No
Color range : Limited
Color primaries : BT.709
Transfer characteristics : BT.709
Matrix coefficients : BT.709


Audio #1
ID : 2
Format : TrueHD
Format profile : TrueHD+Atmos / TrueHD
Codec ID : A_TRUEHD
Duration : 1 h 58 min
Bit rate mode : Variable
Bit rate : 4 219 kb/s
Maximum bit rate : 6 912 kb/s
Channel(s) : Object Based / 8 channels
Channel positions : Object Based / Front: L C R, Side: L R, Back: L R, LFE
Sampling rate : / 48.0 kHz
Frame rate : 1 200.000 FPS (40 SPF)
Compression mode : Lossless
Stream size : 3.49 GiB (8%)
Language : English
Default : No
Forced : No


Audio #2
ID : 3
Format : AC-3
Format/Info : Audio Coding 3
Format settings, Endianness : Big
Codec ID : A_AC3
Duration : 1 h 58 min
Bit rate mode : Constant
Bit rate : 448 kb/s
Channel(s) : 6 channels
Channel positions : Front: L C R, Side: L R, LFE
Sampling rate : 48.0 kHz
Frame rate : 31.250 FPS (1536 SPF)
Bit depth : 16 bits
Compression mode : Lossy
Stream size : 379 MiB (1%)
Language : English
Service kind : Complete Main
Default : No
Forced : No


Audio #3
ID : 4
Format : AC-3
Format/Info : Audio Coding 3
Format settings, Endianness : Big
Codec ID : A_AC3
Duration : 1 h 58 min
Bit rate mode : Constant
Bit rate : 448 kb/s
Channel(s) : 6 channels
Channel positions : Front: L C R, Side: L R, LFE
Sampling rate : 48.0 kHz
Frame rate : 31.250 FPS (1536 SPF)
Bit depth : 16 bits
Compression mode : Lossy
Stream size : 379 MiB (1%)
Language : Turkish
Service kind : Complete Main
Default : Yes
Forced : No


Text #1
ID : 5
Format : UTF-8
Codec ID : S_TEXT/UTF8
Codec ID/Info : UTF-8 Plain Text
Duration : 1 h 57 min
Bit rate : 0 b/s
Count of elements : 32
Stream size : 835 Bytes (0%)
Language : Turkish
Default : Yes
Forced : No


Text #2
ID : 6
Format : UTF-8
Codec ID : S_TEXT/UTF8
Codec ID/Info : UTF-8 Plain Text
Duration : 1 h 57 min
Bit rate : 50 b/s
Count of elements : 1526
Stream size : 43.4 KiB (0%)
Language : English
Default : No
Forced : No


Text #3
ID : 7
Format : UTF-8
Codec ID : S_TEXT/UTF8
Codec ID/Info : UTF-8 Plain Text
Duration : 1 h 57 min
Bit rate : 44 b/s
Count of elements : 1205
Stream size : 37.8 KiB (0%)
Language : Turkish
Default : No
Forced : No




Download Kong: Skull Island (2017) (4K Remux) torrent


Related Torrents


Comments   (please login to add your comment!)


Home - Browse Torrents - Our official mirror : rainbeauxsmith.net

Made with love by an Extratorrent Fan!