DMCA Policy | Hailee Sisera | Something Wicked
extratorrent2.cc - A Fan Made Alternative Login   |   Register
Important Information
Registrations are open now
-------------------------------------

Please click here to register with Extratorrent2 to recieve latest updates, add bookmarks and to post comments.

-------------------------------------

Your login details will work on both Extratorrent2.cc and Extra2.to

Friends
Friends

1) Filebebo
-------------------------------------
2) MoviesDig
-------------------------------------
3) Torrentz2.cc
-------------------------------------
4) Torrents.me

Extratorrent2 > Categories > Movies > Logan.2017.720p.BluRay.x264-x0r torrent


Browse Movies torrents

Logan.2017.720p.BluRay.x264-x0r torrent


Logan (2017)
Name: Logan
Released Year: 2017
Runtime: 137 mins
Gener: Action, Drama, Sci-Fi
Director: James Mangold
Country: USA, Canada, Australia
IMDB Rating: 8.3/10
Plot: In the near future, a weary Logan cares for an ailing Professor X somewhere on the Mexican border. However, Logan's attempts to hide from the world and his legacy are upended when a young mutant arrives, pursued by dark forces.

Download torrent: Download Logan.2017.720p.BluRay.x264-x0r torrent Magnet link Bookmark Torrent: Logan.2017.720p.BluRay.x264-x0r   Logan.2017.720p.BluRay.x264-x0r torrent
Info hash: 5AFDFB9FF53AF4108ADE7900DB094E1FB4C42F47
Category: Categories > Movies
Trackers:
View all torrent trackers >
Health:
 seeds: 3 ,  leechers: 6 |  Update >
Torrent language: English English
Total Size: 3.2 GB
Files List:
4    View torrent files >
Uploader:
showstopper
Torrent added: June 27, 2017, 9:12 am
IMDB: http://www.imdb.com/title/tt3315342
Users rating: ---, not rated. please login to rate.

Download Logan.2017.720p.BluRay.x264-x0r torrent



Torrent Description

Logan.2017.720p.BluRay.x264-x0r

ImDb: http://www.imdb.com/title/tt3315342



Complete name : Logan.2017.720p.BluRay.x264-x0r[TRAILER-Theatrical Trailer].mov
Format : MPEG-4
Format profile : QuickTime
Codec ID : qt 2005.03 (qt )
File size : 83.6 MiB
Duration : 2 min 20 s
Overall bit rate : 4 992 kb/s
Encoded date : UTC 2017-01-19 14:13:42
Tagged date : UTC 2017-01-19 14:13:46
Writing library : Apple QuickTime 7.7.1
com.apple.quicktime.player.movie.audio.m : (Binary)
Media/UUID : 53CD3FD2-E5A7-4584-9E16-493C99BDEDCF

Video
ID : 1
Format : AVC
Format/Info : Advanced Video Codec
Format profile :
Format settings, CABAC : No
Format settings, ReFrames : 2 frames
Codec ID : avc1
Codec ID/Info : Advanced Video Coding
Duration : 2 min 20 s
Bit rate : 4 892 kb/s
Width : 1 280 pixels
Height : 544 pixels
Display aspect ratio : 2.35:1
Frame rate mode : Constant
Frame rate : 23.976 (24000/1001) FPS
Color space : YUV
Chroma subsampling : 4:2:0
Bit depth : 8 bits
Scan type : Progressive
Bits/(Pixel*Frame) : 0.293
Stream size : 81.9 MiB (98%)
Language : English
Encoded date : UTC 2017-01-19 14:13:41
Tagged date : UTC 2017-01-19 14:13:46
Color range : Limited
Color primaries : BT.709
Transfer characteristics : BT.709
Matrix coefficients : BT.709

Audio
ID : 3
Format : AAC
Format/Info : Advanced Audio Codec
Format profile : LC
Codec ID : 40
Duration : 2 min 20 s
Source duration : 2 min 20 s
Bit rate mode : Constant
Bit rate : 96.0 kb/s
Channel(s) : 2 channels
Channel positions : Front: L R
Sampling rate : 44.1 kHz
Frame rate : 43.066 FPS (1024 spf)
Compression mode : Lossy
Stream size : 1.58 MiB (2%)
Source stream size : 1.58 MiB (2%)
Language : English
Encoded date : UTC 2017-01-19 14:13:42
Tagged date : UTC 2017-01-19 14:13:46

Other
ID : 2
Type : Time code
Format : QuickTime TC
Duration : 2 min 20 s
Time code of first frame : 01:00:00:15
Time code, striped : Yes
Title : untitled
Language : English
Encoded date : UTC 2017-01-19 14:13:41
Tagged date : UTC 2017-01-19 14:13:46
Bit rate mode : CBR





Click To View Screenshot
Click To View Screenshot
Click To View Screenshot


Download Logan.2017.720p.BluRay.x264-x0r torrent


Related Torrents


Comments   (please login to add your comment!)

game     hindi     baddaddypov     vanessa silvie     mofos     psd to html     sport     tv porn     charity crawford jason brown young and adventurous     brett rossi 2017     desperate sister gets     bear fuck     girl     bobbi starr     housewife     1080p silver bullet     wife swap czech     un repas de famille     mean 2017     sydney     mrs creampie     imass     buried secrets     lucie cline     


Home - Browse Torrents - Our official mirror : rainbeauxsmith.net

Made with love by an Extratorrent Fan!