WWE 205 Live 2017 05 09 WEB h264-PLUTONiUM[eztv] mkv | Ver series más vistas | Science-Fiction Fantastique
extratorrent2.cc - A Fan Made Alternative Login   |   Register
Important Information
Registrations are open now
-------------------------------------

Please click here to register with Extratorrent2 to recieve latest updates, add bookmarks and to post comments.

-------------------------------------

Your login details will work on both Extratorrent2.cc and Extra2.to

Friends
Friends

1) MoviesDig
-------------------------------------
2) Torrentz2.cc
-------------------------------------
3) Torrents.me

Extratorrent2 > Categories > Movies > Beauty and the Beast 2017 1080p BluRay x264 DTS 5.1 - MRG torrent


Browse Movies torrents

Beauty and the Beast 2017 1080p BluRay x264 DTS 5.1 - MRG torrent


Beauty and the Beast (2017)
Name: Beauty and the Beast
Released Year: 2017
Runtime: 129 mins
Gener: Family, Fantasy, Musical
Director: Bill Condon
Country: USA, UK
IMDB Rating: 7.6/10
Plot: An adaptation of the fairy tale about a monstrous-looking prince and a young woman who fall in love.

Download torrent: Download Beauty and the Beast 2017 1080p BluRay x264 DTS 5.1 - MRG torrent Magnet link Bookmark Torrent: Beauty and the Beast 2017 1080p BluRay x264 DTS 5.1 - MRG   Beauty and the Beast 2017 1080p BluRay x264 DTS 5.1 - MRG torrent
Info hash: F7FD28561E1862D23FD9632882B1F3C7909A5266
Category: Categories > Movies
Trackers:
View all torrent trackers >
Health:
 seeds: 10 ,  leechers: 36 |  Update >
Torrent language: English English
Total Size: 7.9 GB
Files List:
1    View torrent files >
Uploader:
showstopper
Torrent added: July 13, 2017, 7:02 pm
IMDB: http://www.imdb.com/title/tt2771200
Users rating: ---, not rated. please login to rate.

Download Beauty and the Beast 2017 1080p BluRay x264 DTS 5.1 - MRG torrent



Torrent Description

Beauty and the Beast 2017 1080p BluRay x264 DTS 5.1 - MRG

ImDb: http://www.imdb.com/title/tt2771200



Complete name : Beauty and the Beast 2017 1080p BluRay x264 DTS 5.1 - MRG.mkv
Format : Matroska
Format version : Version 4 / Version 2
File size : 7.95 GiB
Duration : 2 h 9 min
Overall bit rate : 8 799 kb/s
Movie name : Beauty and the Beast (2017) - @ Hon3y
Encoded date : UTC 2017-07-04 16:18:29
Writing application : mkvmerge v9.4.2 ('So High') 64bit
Writing library : libebml v1.3.4 + libmatroska v1.4.5

Video
ID : 1
Format : AVC
Format/Info : Advanced Video Codec
Format profile :
Format settings, CABAC : Yes
Format settings, ReFrames : 5 frames
Codec ID : V_MPEG4/ISO/AVC
Duration : 2 h 9 min
Bit rate : 7 287 kb/s
Width : 1 920 pixels
Height : 800 pixels
Display aspect ratio : 2.40:1
Frame rate mode : Constant
Frame rate : 23.976 (24000/1001) FPS
Color space : YUV
Chroma subsampling : 4:2:0
Bit depth : 8 bits
Scan type : Progressive
Bits/(Pixel*Frame) : 0.198
Stream size : 6.58 GiB (83%)
Writing library : x264 core 148 r2705 3f5ed56
Encoding settings : cabac=1 / ref=5 / deblock=1:-1:-1 / analyse=0x3:0x133 / me=umh / subme=9 / psy=1 / psy_rd=1.00:0.15 / mixed_ref=1 / me_range=24 / chroma_me=1 / trellis=2 / 8x8dct=1 / cqm=0 / deadzone=21,11 / fast_pskip=0 / chroma_qp_offset=-3 / threads=12 / lookahead_threads=1 / sliced_threads=0 / nr=250 / decimate=1 / interlaced=0 / bluray_compat=0 / constrained_intra=0 / bframes=3 / b_pyramid=2 / b_adapt=2 / b_bias=0 / direct=3 / weightb=1 / open_gop=0 / weightp=2 / keyint=250 / keyint_min=23 / scenecut=40 / intra_refresh=0 / rc_lookahead=60 / rc=2pass / mbtree=1 / bitrate=7287 / ratetol=1.0 / qcomp=0.60 / qpmin=0 / qpmax=69 / qpstep=4 / cplxblur=20.0 / qblur=0.5 / ip_ratio=1.40 / aq=1:1.00
Language : English
Default : Yes
Forced : No

Audio
ID : 2
Format : DTS
Format/Info : Digital Theater Systems
Mode : 16
Format settings, Endianness : Big
Codec ID : A_DTS
Duration : 2 h 9 min
Bit rate mode : Constant
Bit rate : 1 509 kb/s
Channel(s) : 6 channels
Channel positions : Front: L C R, Side: L R, LFE
Sampling rate : 48.0 kHz
Frame rate : 93.750 FPS (512 spf)
Bit depth : 24 bits
Compression mode : Lossy
Stream size : 1.36 GiB (17%)
Language : English
Default : Yes
Forced : No

Text #1
ID : 3
Format : UTF-8
Codec ID : S_TEXT/UTF8
Codec ID/Info : UTF-8 Plain Text
Duration : 2 h 8 min
Bit rate : 53 b/s
Count of elements : 2019
Stream size : 50.8 KiB (0%)
Language : English
Default : Yes
Forced : No

Text #2
ID : 4
Format : UTF-8
Codec ID : S_TEXT/UTF8
Codec ID/Info : UTF-8 Plain Text
Duration : 2 h 8 min
Bit rate : 47 b/s
Count of elements : 1785
Stream size : 44.9 KiB (0%)
Language : English
Default : No
Forced : No

Menu
00:00:00.000 : en:00:00:00.000
00:04:36.276 : en:00:04:36.276
00:08:06.528 : en:00:08:06.528
00:11:18.261 : en:00:11:18.261
00:15:21.546 : en:00:15:21.546
00:18:57.386 : en:00:18:57.386
00:25:05.921 : en:00:25:05.921
00:31:41.566 : en:00:31:41.566
00:36:08.708 : en:00:36:08.708
00:42:32.258 : en:00:42:32.258
00:47:01.318 : en:00:47:01.318
00:54:44.990 : en:00:54:44.990
01:00:43.557 : en:01:00:43.557
01:07:40.932 : en:01:07:40.932
01:14:38.224 : en:01:14:38.224
01:19:43.696 : en:01:19:43.696
01:22:02.751 : en:01:22:02.751
01:28:53.370 : en:01:28:53.370
01:34:01.302 : en:01:34:01.302
01:38:10.176 : en:01:38:10.176
01:45:23.692 : en:01:45:23.692
01:49:13.964 : en:01:49:13.964
01:55:54.197 : en:01:55:54.197
01:58:49.497 : en:01:58:49.497






Click To View Screenshot

Click To View Screenshot

Click To View Screenshot


Download Beauty and the Beast 2017 1080p BluRay x264 DTS 5.1 - MRG torrent


Related Torrents


Comments   (please login to add your comment!)

rick and morty s03e06     deer hunter     ass     pure nude yoga     lena paul 1st dp     tori     group sex     onlytease 17 imageset     the smell     antivirus     liana ames     dredd 2012 720p     hercules     fabrizio andre     twin peaks s03 1080p     2016 hindi     rick and morty s03e05     slut sister     game of thrones season 7     mine 2015     misha lowe     welcome back 2015     hathaway     monica love     


Home - Browse Torrents - Our official mirror : rainbeauxsmith.net

Made with love by an Extratorrent Fan!