Reproducir | Wendie Malick | Download
extratorrent2.cc - A Fan Made Alternative Login   |   Register
Important Information
Registrations are open now
-------------------------------------

Please click here to register with Extratorrent2 to recieve latest updates, add bookmarks and to post comments.

-------------------------------------

Your login details will work on both Extratorrent2.cc and Extra2.to

Friends
Friends

1) Filebebo
-------------------------------------
2) MoviesDig
-------------------------------------
3) Torrentz2.cc
-------------------------------------
4) Torrents.me

Extratorrent2 > Categories > Movies > The Invisible Man 1933 10bit multi hevc-d3g. torrent


Browse Movies torrents

The Invisible Man 1933 10bit multi hevc-d3g. torrent


Download torrent: Download The Invisible Man 1933 10bit multi hevc-d3g. torrent Magnet link Bookmark Torrent: The Invisible Man 1933 10bit multi hevc-d3g.   The Invisible Man 1933 10bit multi hevc-d3g. torrent
Info hash: CA283DBB9B3B538B492F4E7FC7A7E66E6F9E7231
Category: Categories > Movies
Trackers:
View all torrent trackers >
Health:
 seeds: 6 ,  leechers: 3 |  Update >
Torrent language: English English
Total Size: 4.7 GB
Files List:
1    View torrent files >
Uploader:
showstopper
Torrent added: September 12, 2017, 10:02 pm
IMDB: http://www.imdb.com/title/tt1452793
Users rating: ---, not rated. please login to rate.

Download The Invisible Man 1933 10bit multi hevc-d3g. torrent



Torrent Description

The Invisible Man 1933 10bit multi hevc-d3g.

ImDb: http://www.imdb.com/title/tt1452793



Complete name : The Invisible Man 1933 BluRay 10Bit 1080p Multi-Multi H265-d3g.mkv
Format : Matroska
Format version : Version 4 / Version 2
File size : 4.69 GiB
Duration : 1 h 11 min
Overall bit rate : 9 377 kb/s
Movie name : The Invisible Man 1933 BluRay 10Bit 1080p Multi-Multi H265-d3g
Encoded date : UTC 2017-09-08 04:16:57
Writing application : DVDFab 10.0.5.7
Writing library : libebml v1.3.4 + libmatroska v1.4.5

Video
ID : 1
Format : HEVC
Format/Info : High Efficiency Video Coding
Format profile : Main @Main
Codec ID : V_MPEGH/ISO/HEVC
Duration : 1 h 11 min
Bit rate : 5 731 kb/s
Width : 1 480 pixels
Height : 1 080 pixels
Display aspect ratio : 1.370
Frame rate mode : Constant
Frame rate : 23.976 (24000/1001) FPS
Color space : YUV
Chroma subsampling : 4:2:0
Bit depth : 10 bits
Bits/(Pixel*Frame) : 0.150
Stream size : 2.86 GiB (61%)
Default : Yes
Forced : No
Color range : Limited
Color primaries : BT.709
Transfer characteristics : BT.709
Matrix coefficients : BT.709

Audio #1
ID : 2
Format : DTS
Format/Info : Digital Theater Systems
Format profile : MA / Core
Mode : 16
Format settings, Endianness : Big
Codec ID : A_DTS
Duration : 1 h 11 min
Bit rate mode : Variable / Constant
Bit rate : 1 769 kb/s / 1 509 kb/s
Channel(s) : 2 channels
Channel positions : Front: L R
Sampling rate : 48.0 kHz
Frame rate : 93.750 FPS (512 spf)
Bit depth : 24 bits
Compression mode : Lossless / Lossy
Stream size : 905 MiB (19%)
Language : English
Default : Yes
Forced : No

Audio #2
ID : 3
Format : DTS
Format/Info : Digital Theater Systems
Mode : 16
Format settings, Endianness : Big
Codec ID : A_DTS
Duration : 1 h 11 min
Bit rate mode : Constant
Bit rate : 447 kb/s
Channel(s) : 2 channels
Channel positions : Front: L R
Sampling rate : 48.0 kHz
Frame rate : 93.750 FPS (512 spf)
Bit depth : 24 bits
Compression mode : Lossy
Stream size : 229 MiB (5%)
Language : French
Default : No
Forced : No

Audio #3
ID : 4
Format : DTS
Format/Info : Digital Theater Systems
Mode : 16
Format settings, Endianness : Big
Codec ID : A_DTS
Duration : 1 h 11 min
Bit rate mode : Constant
Bit rate : 447 kb/s
Channel(s) : 2 channels
Channel positions : Front: L R
Sampling rate : 48.0 kHz
Frame rate : 93.750 FPS (512 spf)
Bit depth : 24 bits
Compression mode : Lossy
Stream size : 229 MiB (5%)
Language : Italian
Default : No
Forced : No

Audio #4
ID : 5
Format : DTS
Format/Info : Digital Theater Systems
Mode : 16
Format settings, Endianness : Big
Codec ID : A_DTS
Duration : 1 h 11 min
Bit rate mode : Constant
Bit rate : 447 kb/s
Channel(s) : 2 channels
Channel positions : Front: L R
Sampling rate : 48.0 kHz
Frame rate : 93.750 FPS (512 spf)
Bit depth : 24 bits
Compression mode : Lossy
Stream size : 229 MiB (5%)
Language : German
Default : No
Forced : No

Audio #5
ID : 6
Format : DTS
Format/Info : Digital Theater Systems
Mode : 16
Format settings, Endianness : Big
Codec ID : A_DTS
Duration : 1 h 11 min
Bit rate mode : Constant
Bit rate : 447 kb/s
Channel(s) : 2 channels
Channel positions : Front: L R
Sampling rate : 48.0 kHz
Frame rate : 93.750 FPS (512 spf)
Bit depth : 24 bits
Compression mode : Lossy
Stream size : 229 MiB (5%)
Language : Spanish
Default : No
Forced : No

Text #1
ID : 7
Format : VobSub
Codec ID : S_VOBSUB
Codec ID/Info : Picture based subtitle format used on DVDs
Duration : 1 h 9 min
Bit rate : 13.3 kb/s
Count of elements : 1097
Stream size : 6.60 MiB (0%)
Language : English
Default : No
Forced : No

Text #2
ID : 8
Format : VobSub
Codec ID : S_VOBSUB
Codec ID/Info : Picture based subtitle format used on DVDs
Duration : 1 h 9 min
Bit rate : 10.2 kb/s
Count of elements : 848
Stream size : 5.11 MiB (0%)
Language : French
Default : No
Forced : No

Text #3
ID : 9
Format : VobSub
Codec ID : S_VOBSUB
Codec ID/Info : Picture based subtitle format used on DVDs
Duration : 1 h 9 min
Bit rate : 10.3 kb/s
Count of elements : 854
Stream size : 5.18 MiB (0%)
Language : Italian
Default : No
Forced : No

Text #4
ID : 10
Format : VobSub
Codec ID : S_VOBSUB
Codec ID/Info : Picture based subtitle format used on DVDs
Duration : 1 h 9 min
Bit rate : 10.5 kb/s
Count of elements : 854
Stream size : 5.26 MiB (0%)
Language : German
Default : No
Forced : No

Text #5
ID : 11
Format : VobSub
Codec ID : S_VOBSUB
Codec ID/Info : Picture based subtitle format used on DVDs
Duration : 1 h 9 min
Bit rate : 9 983 b/s
Count of elements : 855
Stream size : 5.00 MiB (0%)
Language : Spanish
Default : No
Forced : No

Text #6
ID : 12
Format : VobSub
Codec ID : S_VOBSUB
Codec ID/Info : Picture based subtitle format used on DVDs
Duration : 1 h 9 min
Bit rate : 10.3 kb/s
Count of elements : 854
Stream size : 5.16 MiB (0%)
Language : Danish
Default : No
Forced : No

Text #7
ID : 13
Format : VobSub
Codec ID : S_VOBSUB
Codec ID/Info : Picture based subtitle format used on DVDs
Duration : 1 h 9 min
Bit rate : 10.7 kb/s
Count of elements : 853
Stream size : 5.34 MiB (0%)
Language : Finnish
Default : No
Forced : No

Text #8
ID : 14
Format : VobSub
Codec ID : S_VOBSUB
Codec ID/Info : Picture based subtitle format used on DVDs
Duration : 1 h 9 min
Bit rate : 10.0 kb/s
Count of elements : 855
Stream size : 5.03 MiB (0%)
Language : Norwegian
Default : No
Forced : No

Text #9
ID : 15
Format : VobSub
Codec ID : S_VOBSUB
Codec ID/Info : Picture based subtitle format used on DVDs
Duration : 1 h 9 min
Bit rate : 10.0 kb/s
Count of elements : 858
Stream size : 5.01 MiB (0%)
Language : Swedish
Default : No
Forced : No

Menu
00:00:00.000 : en:(01)00:00:00:000
00:01:20.705 : en:(02)00:01:20:705
00:08:02.523 : en:(03)00:08:02:523
00:11:34.151 : en:(04)00:11:34:151
00:15:50.032 : en:(05)00:15:50:032
00:19:33.130 : en:(06)00:19:33:130
00:20:58.215 : en:(07)00:20:58:215
00:23:26.029 : en:(08)00:23:26:029
00:28:54.816 : en:(09)00:28:54:816
00:35:37.176 : en:(10)00:35:37:176
00:42:29.505 : en:(11)00:42:29:505
00:51:16.823 : en:(12)00:51:16:823
00:53:53.688 : en:(13)00:53:53:688
00:59:55.550 : en:(14)00:59:55:550
01:02:31.456 : en:(15)01:02:31:456
01:04:21.816 : en:(16)01:04:21:816
01:08:54.255 : en:(17)01:08:54:255
01:10:52.539 : en:(18)01:10:52:539
01:11:33.038 : en:(19)01:11:33:038






Click To View Screenshot

Click To View Screenshot

Click To View Screenshot


Download The Invisible Man 1933 10bit multi hevc-d3g. torrent


Related Torrents


Comments   (please login to add your comment!)


Home - Browse Torrents - Our official mirror : rainbeauxsmith.net

Made with love by an Extratorrent Fan!