Yes, Dear | stay with me | A to Z - Saison 1
extratorrent2.cc - A Fan Made Alternative Login   |   Register
Important Information
Registrations are open now
-------------------------------------

Please click here to register with Extratorrent2 to recieve latest updates, add bookmarks and to post comments.

-------------------------------------

Your login details will work on both Extratorrent2.cc and Extra2.to

Friends
Friends

1) Filebebo
-------------------------------------
2) MoviesDig
-------------------------------------
3) Torrentz2.cc
-------------------------------------
4) Torrents.me

Extratorrent2 > Categories > TV > Arrow-SO1-EO22-720p-Bluray-Dual-Audio-Hin+Eng-Rinku torrent


Browse TV torrents

Arrow-SO1-EO22-720p-Bluray-Dual-Audio-Hin+Eng-Rinku torrent


Download torrent: Download Arrow-SO1-EO22-720p-Bluray-Dual-Audio-Hin+Eng-Rinku torrent Magnet link Bookmark Torrent: Arrow-SO1-EO22-720p-Bluray-Dual-Audio-Hin+Eng-Rinku   Arrow-SO1-EO22-720p-Bluray-Dual-Audio-Hin+Eng-Rinku torrent
Info hash: 5CB00B7450D9950CB7E52F1571052D8F2990058B
Category: Categories > TV
Trackers:
View all torrent trackers >
Health:
 seeds: 0 ,  leechers: 21 |  Update >
Torrent language: Hindi Hindi
Total Size: 424.7 MB
Files List:
14    View torrent files >
Uploader:
rinku4445
Torrent added: September 5, 2017, 10:02 am
Tags: Arrow, Hindi, R!nku, EDM, E22
Users rating: ---, not rated. please login to rate.

Download Arrow-SO1-EO22-720p-Bluray-Dual-Audio-Hin+Eng-Rinku torrent



Torrent Description




Arrow SO1EO22 720p Bluray Dual Audio Hin+Eng Rinku Team Edm
IMDB Link
Join Us Now
ITS URDU DUBBED
PERFECT LIP TO LIP SYNCHRONIZATION BY ME--RINKU--
SAMPLE INCLUDED IN FOLDER

General
Complete name                            : Arrow SO1EO22 720p Bluray Dual Audio Hin+Eng Rinku www.extradesimovies.in .mkv
Format                                   : Matroska
Format version                           : Version 4 / Version 2
File size                                : 400 MiB
Duration                                 : 42 min 26 s



Video

ID                                       : 1
Format                                   : AVC
Codec ID                                 : V_MPEG4/ISO/AVC
Duration                                 : 42 min 25 s
Bit rate                                 : 1 088 kb/s
Width                                    : 1 280 pixels
Height                                   : 720 pixels
Color space                              : YUV
Bit depth                                : 8 bits
Stream size                              : 330 MiB (83%)


Audio #1

ID                                       : 2
Format                                   : AAC
Format/Info                              : Advanced Audio Codec
Codec ID                                 : A_AAC
Channel(s)                               : 2 channels
Channel positions                        : Front: L R
Compression mode                         : Lossy
Delay relative to video                  : 31 ms
Stream size                              : 19.4 MiB (5%)
Title                                    : DD2.0
Language                                 : English


Audio #2

ID                                       : 3
Format                                   : AAC
Format/Info                              : Advanced Audio Codec
Codec ID                                 : A_AAC
Channel(s)                               : 2 channels
Channel positions                        : Front: L R
Compression mode                         : Lossy
Stream size                              : 49.4 MiB (12%)
Title                                    : DD2.0
Language                                 : Hindi


Text

ID                                       : 4
Format                                   : UTF-8
Codec ID                                 : S_TEXT/UTF8
Codec ID/Info                            : UTF-8 Plain Text
Duration                                 : 40 min 9 s
Language                                 : English
Default                                  : Yes
Forced                                   : No

--::SCREENSHOT::--












Download Arrow-SO1-EO22-720p-Bluray-Dual-Audio-Hin+Eng-Rinku torrent




Comments   (please login to add your comment!)

tad     riley reid     100     dexter season 1     blacked alexa grace     rob roy     relaxxxed 2017     12 2017     street     spacewalk     the mummy english     singh is bliing     apk     shrek 2 2004     the olympic interchange 2     nekane sweet legalporno     sneaky     leona levi     sister     alexis texas     gio290     pirates of the caribbean     anno     arrow     


Home - Browse Torrents - Our official mirror : rainbeauxsmith.net

Made with love by an Extratorrent Fan!