Wicedyrektorzy / Vice Principals | Zac Efron | Read more
extratorrent2.cc - A Fan Made Alternative Login   |   Register
Important Information
Registrations are open now
-------------------------------------

Please click here to register with Extratorrent2 to recieve latest updates, add bookmarks and to post comments.

-------------------------------------

Your login details will work on both Extratorrent2.cc and Extra2.to

Friends
Friends

1) Filebebo
-------------------------------------
2) MoviesDig
-------------------------------------
3) Torrentz2.cc
-------------------------------------
4) Torrents.me

Extratorrent2 > Categories > Movies > Night.People.1954.INTERNAL.BDRip.x264-RedBlade torrent


Browse Movies torrents

Night.People.1954.INTERNAL.BDRip.x264-RedBlade torrent


Night People (1954)
Name: Night People
Released Year: 1954
Runtime: 93 mins
Gener: Adventure, Crime, Mystery
Director: Nunnally Johnson
Country: USA, West Germany
IMDB Rating: 6.6/10
Plot: During the Cold War, an American soldier is abducted by Soviet agents in West Berlin, sparking a recovery effort led by Colonel Steve Van Dyke.

Download torrent: Download Night.People.1954.INTERNAL.BDRip.x264-RedBlade torrent Magnet link Bookmark Torrent: Night.People.1954.INTERNAL.BDRip.x264-RedBlade   Night.People.1954.INTERNAL.BDRip.x264-RedBlade torrent
Info hash: 927804F4C23BD34F4BD0D5877AF9EC9B8782EF5C
Category: Categories > Movies
Trackers:
View all torrent trackers >
Health:
 seeds: 10 ,  leechers: 4 |  Update >
Torrent language: English English
Total Size: 417.1 MB
Files List:
2    View torrent files >
Uploader:
showstopper
Torrent added: September 13, 2017, 12:02 am
IMDB: http://www.imdb.com/title/tt0047279
Users rating: ---, not rated. please login to rate.

Download Night.People.1954.INTERNAL.BDRip.x264-RedBlade torrent



Torrent Description

Night.People.1954.INTERNAL.BDRip.x264-RedBlade

ImDb: http://www.imdb.com/title/tt0047279



Complete name : Night.People.1954.INTERNAL.BDRip.x264-RedBlade.mkv
Format : Matroska
Format version : Version 2
File size : 417 MiB
Duration : 1 h 33 min
Overall bit rate : 622 kb/s
Encoded date : UTC 2017-09-12 18:52:37
Writing application : mkvmerge v14.0.0 ('Flow') 64bit
Writing library : libebml v1.3.4 + libmatroska v1.4.5

Video
ID : 1
Format : AVC
Format/Info : Advanced Video Codec
Format profile :
Format settings, CABAC : Yes
Format settings, ReFrames : 5 frames
Codec ID : V_MPEG4/ISO/AVC
Duration : 1 h 33 min
Bit rate : 555 kb/s
Width : 720 pixels
Height : 282 pixels
Display aspect ratio : 2.553
Frame rate mode : Constant
Frame rate : 23.976 (24000/1001) FPS
Color space : YUV
Chroma subsampling : 4:2:0
Bit depth : 8 bits
Scan type : Progressive
Bits/(Pixel*Frame) : 0.114
Stream size : 372 MiB (89%)
Writing library : x264 core 152 r2851 ba24899
Encoding settings : cabac=1 / ref=5 / deblock=1:0:0 / analyse=0x3:0x113 / me=hex / subme=8 / psy=1 / psy_rd=1.00:0.00 / mixed_ref=1 / me_range=16 / chroma_me=1 / trellis=2 / 8x8dct=1 / cqm=0 / deadzone=21,11 / fast_pskip=1 / chroma_qp_offset=-2 / threads=9 / lookahead_threads=1 / sliced_threads=0 / nr=0 / decimate=1 / interlaced=0 / bluray_compat=0 / constrained_intra=0 / bframes=3 / b_pyramid=2 / b_adapt=1 / b_bias=0 / direct=3 / weightb=1 / open_gop=0 / weightp=2 / keyint=230 / keyint_min=23 / scenecut=40 / intra_refresh=0 / rc_lookahead=50 / rc=crf / mbtree=1 / crf=19.0 / qcomp=0.60 / qpmin=0 / qpmax=69 / qpstep=4 / ip_ratio=1.40 / aq=1:1.00
Language : English
Default : Yes
Forced : No
Color range : Limited
Matrix coefficients : BT.709

Audio
ID : 2
Format : AAC
Format/Info : Advanced Audio Codec
Format profile : LC
Codec ID : A_AAC
Duration : 1 h 33 min
Bit rate : 66.2 kb/s
Channel(s) : 1 channel
Channel positions : Front: C
Sampling rate : 48.0 kHz
Frame rate : 46.875 FPS (1024 spf)
Compression mode : Lossy
Delay relative to video : 9 ms
Stream size : 43.6 MiB (10%)
Language : English
Default : Yes
Forced : No

Text
ID : 3
Format : UTF-8
Codec ID : S_TEXT/UTF8
Codec ID/Info : UTF-8 Plain Text
Duration : 1 h 31 min
Bit rate : 84 b/s
Count of elements : 1547
Stream size : 56.4 KiB (0%)
Language : English
Default : No
Forced : No

Menu
00:00:00.000 : en:00:00:00.000
00:12:54.315 : en:00:12:54.315
00:25:07.923 : en:00:25:07.923
00:39:44.173 : en:00:39:44.173
00:50:47.336 : en:00:50:47.336
01:03:29.264 : en:01:03:29.264
01:14:45.356 : en:01:14:45.356
01:24:16.885 : en:01:24:16.885






Click To View Screenshot

Click To View Screenshot

Click To View Screenshot


Download Night.People.1954.INTERNAL.BDRip.x264-RedBlade torrent


Related Torrents


Comments   (please login to add your comment!)


Home - Browse Torrents - Our official mirror : rainbeauxsmith.net

Made with love by an Extratorrent Fan!