Karneval | Arcade Fire | Hangs Upon Nothing
extratorrent2.cc - A Fan Made Alternative Login   |   Register
Important Information
Registrations are open now
-------------------------------------

Please click here to register with Extratorrent2 to recieve latest updates, add bookmarks and to post comments.

-------------------------------------

Your login details will work on both Extratorrent2.cc and Extra2.to

Friends
Friends

1) Filebebo
-------------------------------------
2) MoviesDig
-------------------------------------
3) Torrentz2.cc
-------------------------------------
4) Torrents.me

Extratorrent2 > Categories > Movies > Jeff Dunham Relative Disaster 2017 Movies HDRip XviD AAC with Sample ☻rDX☻ torrent


Browse Movies torrents

Jeff Dunham Relative Disaster 2017 Movies HDRip XviD AAC with Sample ☻rDX☻ torrent


Download torrent: Download Jeff Dunham Relative Disaster 2017 Movies HDRip XviD AAC with Sample ☻rDX☻ torrent Magnet link Bookmark Torrent: Jeff Dunham Relative Disaster 2017 Movies HDRip XviD AAC with Sample ☻rDX☻   Jeff Dunham Relative Disaster 2017 Movies HDRip XviD AAC with Sample ☻rDX☻ torrent
Info hash: 6B20D14745471174990391EE5FB71E3F2456875F
Category: Categories > Movies
Trackers:
View all torrent trackers >
Health:
 seeds: 1 ,  leechers: 230 |  Update >
Torrent language: English English
Total Size: 705.1 MB
Files List:
2    View torrent files >
Uploader:
nehalpuja
Torrent added: September 13, 2017, 12:02 am
Users rating: ---, not rated. please login to rate.

Download Jeff Dunham Relative Disaster 2017 Movies HDRip XviD AAC with Sample ☻rDX☻ torrent



Torrent Description

Jeff Dunham Relative Disaster 2017 Movies HDRip XviD AAC with Sample ☻rDX☻
===============================================================================================

SCREEN SHOTS:



or

http://postimage.co.nr/2017/9/policy/1.html

File size : 698 MiB
Duration : 1 h 10 min
Overall bit rate mode : Constant
Overall bit rate : 1 384 kb/s
Movie name : Jeff Dunham Relative Disaster 2017 Movies HDRip XviD AAC ☻rDX☻

Video
ID : 2
Format : AVC
Format/Info : Advanced Video Codec
Format profile :
Format settings, CABAC : Yes
Format settings, ReFrames : 2 frames
Format settings, GOP : M=1, N=12
Codec ID : V_MPEG4/ISO/AVC
Duration : 1 h 10 min
Bit rate mode : Constant
Bit rate : 1 001 kb/s
Width : 720 pixels
Height : 400 pixels
Display aspect ratio : 16:9
Frame rate mode : Constant
Frame rate : 23.976 FPS
Color space : YUV
Chroma subsampling : 4:2:0
Bit depth : 8 bits
Scan type : Progressive
Bits/(Pixel*Frame) : 0.145
Stream size : 490 MiB (70%)
Title : ☻rDX☻
Default : Yes
Forced : No

Audio
ID : 1
Format : AC-3
Format/Info : Audio Coding 3
Mode extension : CM (complete main)
Format settings, Endianness : Big
Codec ID : A_AC3
Duration : 1 h 10 min
Bit rate mode : Constant
Bit rate : 384 kb/s
Channel(s) : 6 channels
Channel positions : Front: L C R, Side: L R, LFE
Sampling rate : 48.0 kHz
Frame rate : 31.250 FPS (1536 spf)
Bit depth : 16 bits
Compression mode : Lossy
Stream size : 194 MiB (28%)
Title : ☻rDX☻
Default : Yes
Forced : No



IMDB : http://www.imdb.com/name/nm0242278


Download Jeff Dunham Relative Disaster 2017 Movies HDRip XviD AAC with Sample ☻rDX☻ torrent


Related Torrents


Comments   (please login to add your comment!)

veer zaraa     lucie makes porn     gyno     new s 2017     parody wonder     blackmailed milfs     cassidy banks     laura orsolya     step and     the great wall ita     valentina bianco seduces     drunken     curse of the ring     german swingers     the defenders     game of thrones season     virgo     banana joe     czechwifeswap 2     the strain s04e09     game of throne     500 giorni insieme     triga     winx     


Home - Browse Torrents - Our official mirror : rainbeauxsmith.net

Made with love by an Extratorrent Fan!