Rillington Place (season 1) | The Finest Hours | Comics189
extratorrent2.cc - A Fan Made Alternative Login   |   Register
Important Information
Registrations are open now
-------------------------------------

Please click here to register with Extratorrent2 to recieve latest updates, add bookmarks and to post comments.

-------------------------------------

Your login details will work on both Extratorrent2.cc and Extra2.to

Friends
Friends

1) MoviesDig
-------------------------------------
2) Torrentz2.cc
-------------------------------------
3) Torrents.me

Extratorrent2 > Categories > Movies > Fifty Shades Darker (2017) UNRATED 1080p BluRay x264 AAC 5.1 - Hon3y torrent


Browse Movies torrents

Fifty Shades Darker (2017) UNRATED 1080p BluRay x264 AAC 5.1 - Hon3y torrent


Download torrent: Download Fifty Shades Darker (2017) UNRATED 1080p BluRay x264 AAC 5.1 - Hon3y torrent Magnet link Bookmark Torrent: Fifty Shades Darker (2017) UNRATED 1080p BluRay x264 AAC 5.1 - Hon3y   Fifty Shades Darker (2017) UNRATED 1080p BluRay x264 AAC 5.1 - Hon3y torrent
Info hash: 694B324CF566AA5973447DFDCC5296BCA1E0F391
Category: Categories > Movies
Trackers:
View all torrent trackers >
Health:
 seeds: 0 ,  leechers: 53 |  Update >
Torrent language: English English
Total Size: 2.6 GB
Files List:
2    View torrent files >
Uploader:
Hon3yHD
Torrent added: June 20, 2017, 10:02 pm
Tags: Drama, Romance
Users rating: ---, not rated. please login to rate.

Download Fifty Shades Darker (2017) UNRATED 1080p BluRay x264 AAC 5.1 - Hon3y torrent



Torrent Description



Fifty Shades Darker (2017) UNRATED 1080p BluRay x264 AAC 5.1 - Hon3y

http://www.hdsector.com

Format : Matroska
Format version : Version 4 / Version 2
File size : 2.59 GiB
Duration : 2 h 11 min
Overall bit rate : 2 821 kb/s
Movie name :


Video
ID : 1
Format : AVC
Format/Info : Advanced Video Codec
Format profile :
Format settings, CABAC : Yes
Format settings, ReFrames : 5 frames
Codec ID : V_MPEG4/ISO/AVC
Duration : 2 h 11 min
Bit rate : 2 500 kb/s
Width : 1 920 pixels
Height : 800 pixels
Display aspect ratio : 2.40:1
Frame rate mode : Constant
Frame rate : 23.976 (24000/1001) FPS


Audio
ID : 2
Format : AAC
Format/Info : Advanced Audio Codec
Format profile : LC
Codec ID : A_AAC
Duration : 2 h 11 min
Bit rate : 320 kb/s
Channel(s) : 6 channels
Channel positions : Front: L C R, Side: L R, LFE
Sampling rate : 48.0 kHz
Frame rate : 46.875 FPS (1024 spf)
Compression mode : Lossy
Delay relative to video : 9 ms
Stream size : 301 MiB (11%)
Language : English
Default : Yes
Forced : No

Text
ID : 3
Format : UTF-8
Codec ID : S_TEXT/UTF8
Codec ID/Info : UTF-8 Plain Text
Duration : 2 h 8 min
Bit rate : 42 b/s
Count of elements : 1472
Stream size : 40.0 KiB (0%)
Language : English
Default : Yes
Forced : No

Menu #1
00:00:00.054 : en:00:00:00.054

Menu #2
00:00:00.000 : en:00:00:00.000
00:05:47.722 : en:00:05:47.722
00:13:14.460 : en:00:13:14.460
00:18:18.055 : en:00:18:18.055
00:24:45.359 : en:00:24:45.359
00:29:19.675 : en:00:29:19.675
00:37:25.201 : en:00:37:25.201
00:44:31.794 : en:00:44:31.794
00:50:22.394 : en:00:50:22.394
00:57:58.058 : en:00:57:58.058
01:06:01.958 : en:01:06:01.958
01:11:54.936 : en:01:11:54.936
01:24:49.876 : en:01:24:49.876
01:30:39.851 : en:01:30:39.851
01:35:40.651 : en:01:35:40.651
01:41:00.221 : en:01:41:00.221
01:48:53.735 : en:01:48:53.735
01:55:57.701 : en:01:55:57.701
02:01:38.374 : en:02:01:38.374
02:05:32.149 : en:02:05:32.149

http://www.hdsector.com



Download Fifty Shades Darker (2017) UNRATED 1080p BluRay x264 AAC 5.1 - Hon3y torrent


Related Torrents


Comments   (please login to add your comment!)


Home - Browse Torrents - Our official mirror : rainbeauxsmith.net

Made with love by an Extratorrent Fan!